<?xml version="1.0" standalone="no"?>
<!DOCTYPE svg PUBLIC "-//W3C//DTD SVG 1.1//EN" "http://www.w3.org/Graphics/SVG/1.1/DTD/svg11.dtd" >
<svg xmlns="http://www.w3.org/2000/svg">
    <metadata>Generated by IcoMoon</metadata>
    <defs>
        <font id="vcv-feather" horiz-adv-x="1024">
            <font-face units-per-em="1024" ascent="960" descent="-64" />
            <missing-glyph horiz-adv-x="1024" />
            <glyph unicode="&#x20;" horiz-adv-x="512" d="" />
            <glyph unicode="&#xe900;" glyph-name="activity" d="M651.636 176.281l-235.116 705.347c-14.145 42.435-74.169 42.435-88.314 0l-129.028-387.083h-152.634c-25.706 0-46.545-20.839-46.545-46.545s20.839-46.545 46.545-46.545h186.182c20.035 0 37.821 12.82 44.157 31.826l95.479 286.438 235.116-705.347c14.145-42.435 74.169-42.435 88.314 0l129.028 387.083h152.634c25.706 0 46.545 20.839 46.545 46.545s-20.839 46.545-46.545 46.545h-186.182c-20.035 0-37.821-12.82-44.157-31.826l-95.479-286.438z" />
            <glyph unicode="&#xe901;" glyph-name="airplay" d="M186.182 261.818h-46.545c-25.706 0-46.545 20.839-46.545 46.545v465.455c0 25.706 20.839 46.545 46.545 46.545h744.727c25.706 0 46.545-20.839 46.545-46.545v-465.455c0-25.706-20.839-46.545-46.545-46.545h-46.545c-25.706 0-46.545-20.839-46.545-46.545s20.839-46.545 46.545-46.545h46.545c77.119 0 139.636 62.517 139.636 139.636v465.455c0 77.119-62.517 139.636-139.636 139.636h-744.727c-77.119 0-139.636-62.517-139.636-139.636v-465.455c0-77.119 62.517-139.636 139.636-139.636h46.545c25.706 0 46.545 20.839 46.545 46.545s-20.839 46.545-46.545 46.545zM476.243 338.161c18.609 22.33 52.906 22.33 71.514 0l232.727-279.273c25.264-30.316 3.706-76.343-35.757-76.343h-465.455c-39.463 0-61.021 46.027-35.757 76.343l232.727 279.273zM378.649 75.636h266.702l-133.351 160.021-133.351-160.021z" />
            <glyph unicode="&#xe902;" glyph-name="alert-circle" d="M512-64c282.77 0 512 229.23 512 512s-229.23 512-512 512c-282.77 0-512-229.23-512-512s229.23-512 512-512zM512 29.091c-231.357 0-418.909 187.552-418.909 418.909s187.552 418.909 418.909 418.909c231.357 0 418.909-187.552 418.909-418.909s-187.552-418.909-418.909-418.909zM465.455 634.182v-186.182c0-25.706 20.839-46.545 46.545-46.545s46.545 20.839 46.545 46.545v186.182c0 25.706-20.839 46.545-46.545 46.545s-46.545-20.839-46.545-46.545zM479.087 228.906c18.177-18.177 47.648-18.177 65.825 0s18.177 47.648 0 65.825c-18.177 18.177-47.648 18.177-65.825 0s-18.177-47.648 0-65.825z" />
            <glyph unicode="&#xe903;" glyph-name="alert-octagon" d="M286.389 946.367c8.729 8.729 20.568 13.633 32.913 13.633h385.396c12.345 0 24.184-4.904 32.913-13.633l272.756-272.756c8.729-8.729 13.633-20.568 13.633-32.913v-385.396c0-12.345-4.904-24.184-13.633-32.913l-272.756-272.756c-8.729-8.729-20.568-13.633-32.913-13.633h-385.396c-12.345 0-24.184 4.904-32.913 13.633l-272.756 272.756c-8.729 8.729-13.633 20.568-13.633 32.913v385.396c0 12.345 4.904 24.184 13.633 32.913l272.756 272.756zM338.582 866.909l-245.491-245.491v-346.837l245.491-245.491h346.837l245.491 245.491v346.837l-245.491 245.491h-346.837zM465.455 634.182v-186.182c0-25.706 20.839-46.545 46.545-46.545s46.545 20.839 46.545 46.545v186.182c0 25.706-20.839 46.545-46.545 46.545s-46.545-20.839-46.545-46.545zM479.087 228.906c18.177-18.177 47.648-18.177 65.825 0s18.177 47.648 0 65.825c-18.177 18.177-47.648 18.177-65.825 0s-18.177-47.648 0-65.825z" />
            <glyph unicode="&#xe904;" glyph-name="alert-triangle" d="M402.438 795.898l-361.387-603.307c-23.090-39.975-23.225-88.471-0.703-127.983s64.319-64.106 109.797-64.609h723.242c45.947 0.502 87.744 25.097 110.266 64.609s22.386 88.008-0.357 127.394l-361.733 603.896c-23.327 38.457-64.821 61.819-109.562 61.819s-86.236-23.362-109.44-61.616l-0.122-0.203zM512 772.384c14.914 0 28.745-7.787 36.48-20.539l361.264-603.104c7.234-12.539 7.28-28.705-0.228-41.875s-21.44-21.369-36.599-21.535h-722.304c-14.69 0.167-28.623 8.365-36.13 21.535s-7.462 29.336 0.119 42.465l360.969 602.598c7.744 12.702 21.548 20.455 36.429 20.455zM469.333 554.667v-170.667c0-23.564 19.103-42.667 42.667-42.667s42.667 19.103 42.667 42.667v170.667c0 23.564-19.103 42.667-42.667 42.667s-42.667-19.103-42.667-42.667zM481.83 183.163c16.662-16.662 43.677-16.662 60.34 0s16.662 43.677 0 60.34c-16.662 16.662-43.677 16.662-60.34 0s-16.662-43.677 0-60.34z" />
            <glyph unicode="&#xe905;" glyph-name="align-center" d="M819.2 601.6h-614.4c-28.277 0-51.2-22.923-51.2-51.2s22.923-51.2 51.2-51.2h614.4c28.277 0 51.2 22.923 51.2 51.2s-22.923 51.2-51.2 51.2zM972.8 806.4h-921.6c-28.277 0-51.2-22.923-51.2-51.2s22.923-51.2 51.2-51.2h921.6c28.277 0 51.2 22.923 51.2 51.2s-22.923 51.2-51.2 51.2zM972.8 396.8h-921.6c-28.277 0-51.2-22.923-51.2-51.2s22.923-51.2 51.2-51.2h921.6c28.277 0 51.2 22.923 51.2 51.2s-22.923 51.2-51.2 51.2zM819.2 192h-614.4c-28.277 0-51.2-22.923-51.2-51.2s22.923-51.2 51.2-51.2h614.4c28.277 0 51.2 22.923 51.2 51.2s-22.923 51.2-51.2 51.2z" />
            <glyph unicode="&#xe906;" glyph-name="align-justify" d="M972.8 601.6h-921.6c-28.277 0-51.2-22.923-51.2-51.2s22.923-51.2 51.2-51.2h921.6c28.277 0 51.2 22.923 51.2 51.2s-22.923 51.2-51.2 51.2zM972.8 806.4h-921.6c-28.277 0-51.2-22.923-51.2-51.2s22.923-51.2 51.2-51.2h921.6c28.277 0 51.2 22.923 51.2 51.2s-22.923 51.2-51.2 51.2zM972.8 396.8h-921.6c-28.277 0-51.2-22.923-51.2-51.2s22.923-51.2 51.2-51.2h921.6c28.277 0 51.2 22.923 51.2 51.2s-22.923 51.2-51.2 51.2zM972.8 192h-921.6c-28.277 0-51.2-22.923-51.2-51.2s22.923-51.2 51.2-51.2h921.6c28.277 0 51.2 22.923 51.2 51.2s-22.923 51.2-51.2 51.2z" />
            <glyph unicode="&#xe907;" glyph-name="align-left" d="M768 601.6h-716.8c-28.277 0-51.2-22.923-51.2-51.2s22.923-51.2 51.2-51.2h716.8c28.277 0 51.2 22.923 51.2 51.2s-22.923 51.2-51.2 51.2zM972.8 806.4h-921.6c-28.277 0-51.2-22.923-51.2-51.2s22.923-51.2 51.2-51.2h921.6c28.277 0 51.2 22.923 51.2 51.2s-22.923 51.2-51.2 51.2zM972.8 396.8h-921.6c-28.277 0-51.2-22.923-51.2-51.2s22.923-51.2 51.2-51.2h921.6c28.277 0 51.2 22.923 51.2 51.2s-22.923 51.2-51.2 51.2zM768 192h-716.8c-28.277 0-51.2-22.923-51.2-51.2s22.923-51.2 51.2-51.2h716.8c28.277 0 51.2 22.923 51.2 51.2s-22.923 51.2-51.2 51.2z" />
            <glyph unicode="&#xe908;" glyph-name="align-right" d="M972.8 601.6h-716.8c-28.277 0-51.2-22.923-51.2-51.2s22.923-51.2 51.2-51.2h716.8c28.277 0 51.2 22.923 51.2 51.2s-22.923 51.2-51.2 51.2zM972.8 806.4h-921.6c-28.277 0-51.2-22.923-51.2-51.2s22.923-51.2 51.2-51.2h921.6c28.277 0 51.2 22.923 51.2 51.2s-22.923 51.2-51.2 51.2zM972.8 396.8h-921.6c-28.277 0-51.2-22.923-51.2-51.2s22.923-51.2 51.2-51.2h921.6c28.277 0 51.2 22.923 51.2 51.2s-22.923 51.2-51.2 51.2zM972.8 192h-716.8c-28.277 0-51.2-22.923-51.2-51.2s22.923-51.2 51.2-51.2h716.8c28.277 0 51.2 22.923 51.2 51.2s-22.923 51.2-51.2 51.2z" />
            <glyph unicode="&#xe909;" glyph-name="anchor" d="M512 587.636c102.825 0 186.182 83.356 186.182 186.182s-83.356 186.182-186.182 186.182c-102.825 0-186.182-83.356-186.182-186.182s83.356-186.182 186.182-186.182zM512 680.727c-51.413 0-93.091 41.678-93.091 93.091s41.678 93.091 93.091 93.091c51.413 0 93.091-41.678 93.091-93.091s-41.678-93.091-93.091-93.091zM558.545-17.455v651.636c0 25.706-20.839 46.545-46.545 46.545s-46.545-20.839-46.545-46.545v-651.636c0-25.706 20.839-46.545 46.545-46.545s46.545 20.839 46.545 46.545zM928.352 401.455c-23.154-209.452-200.728-372.364-416.352-372.364s-393.199 162.911-416.352 372.364h90.534c25.706 0 46.545 20.839 46.545 46.545s-20.839 46.545-46.545 46.545h-139.636c-25.706 0-46.545-20.839-46.545-46.545 0-282.77 229.23-512 512-512s512 229.23 512 512c0 25.706-20.839 46.545-46.545 46.545h-139.636c-25.706 0-46.545-20.839-46.545-46.545s20.839-46.545 46.545-46.545h90.534z" />
            <glyph unicode="&#xe90a;" glyph-name="aperture" d="M512-64c282.77 0 512 229.23 512 512s-229.23 512-512 512c-282.77 0-512-229.23-512-512s229.23-512 512-512zM512 29.091c-231.357 0-418.909 187.552-418.909 418.909s187.552 418.909 418.909 418.909c231.357 0 418.909-187.552 418.909-418.909s-187.552-418.909-418.909-418.909zM579.212 610.906l267.171-462.662c12.855-22.261 41.322-29.886 63.584-17.031s29.886 41.322 17.031 63.584l-267.171 462.662c-12.855 22.261-41.322 29.886-63.584 17.031s-29.886-41.322-17.031-63.584zM404.48 587.636h534.342c25.706 0 46.545 20.839 46.545 46.545s-20.839 46.545-46.545 46.545h-534.342c-25.706 0-46.545-20.839-46.545-46.545s20.839-46.545 46.545-46.545zM337.268 424.724l267.171 462.662c12.855 22.261 5.23 50.729-17.031 63.584s-50.729 5.23-63.584-17.031l-267.171-462.662c-12.855-22.261-5.23-50.729 17.031-63.584s50.729-5.23 63.584 17.031zM444.788 285.094l-267.171 462.662c-12.855 22.261-41.322 29.886-63.584 17.031s-29.886-41.322-17.031-63.584l267.171-462.662c12.855-22.261 41.322-29.886 63.584-17.031s29.886 41.322 17.031 63.584zM619.52 308.364h-534.342c-25.706 0-46.545-20.839-46.545-46.545s20.839-46.545 46.545-46.545h534.342c25.706 0 46.545 20.839 46.545 46.545s-20.839 46.545-46.545 46.545zM686.732 471.276l-267.171-462.662c-12.855-22.261-5.23-50.729 17.031-63.584s50.729-5.23 63.584 17.031l267.171 462.662c12.855 22.261 5.23 50.729-17.031 63.584s-50.729 5.23-63.584-17.031z" />
            <glyph unicode="&#xe90b;" glyph-name="archive" d="M853.333 106.667h-682.667v512c0 23.564-19.103 42.667-42.667 42.667s-42.667-19.103-42.667-42.667v-554.667c0-23.564 19.103-42.667 42.667-42.667h768c23.564 0 42.667 19.103 42.667 42.667v554.667c0 23.564-19.103 42.667-42.667 42.667s-42.667-19.103-42.667-42.667v-512zM0 832c0 23.564 19.103 42.667 42.667 42.667h938.667c23.564 0 42.667-19.103 42.667-42.667v-213.333c0-23.564-19.103-42.667-42.667-42.667h-938.667c-23.564 0-42.667 19.103-42.667 42.667v213.333zM85.333 789.333v-128h853.333v128h-853.333zM426.667 405.333h170.667c23.564 0 42.667 19.103 42.667 42.667s-19.103 42.667-42.667 42.667h-170.667c-23.564 0-42.667-19.103-42.667-42.667s19.103-42.667 42.667-42.667z" />
            <glyph unicode="&#xe90c;" glyph-name="arrow-down-circle" d="M512-64c282.77 0 512 229.23 512 512s-229.23 512-512 512c-282.77 0-512-229.23-512-512s229.23-512 512-512zM512 29.091c-231.357 0-418.909 187.552-418.909 418.909s187.552 418.909 418.909 418.909c231.357 0 418.909-187.552 418.909-418.909s-187.552-418.909-418.909-418.909zM512 327.643l-153.269 153.269c-18.177 18.177-47.648 18.177-65.825 0s-18.177-47.648 0-65.825l186.182-186.182c18.177-18.177 47.648-18.177 65.825 0l186.182 186.182c18.177 18.177 18.177 47.648 0 65.825s-47.648 18.177-65.825 0l-153.269-153.269zM465.455 634.182v-372.364c0-25.706 20.839-46.545 46.545-46.545s46.545 20.839 46.545 46.545v372.364c0 25.706-20.839 46.545-46.545 46.545s-46.545-20.839-46.545-46.545z" />
            <glyph unicode="&#xe90d;" glyph-name="arrow-down-left" d="M878.327 935.006l-853.333-853.333c-33.325-33.325-33.325-87.355 0-120.68s87.355-33.325 120.68 0l853.333 853.333c33.325 33.325 33.325 87.355 0 120.68s-87.355 33.325-120.68 0zM170.667 106.667v768c0 47.128-38.205 85.333-85.333 85.333s-85.333-38.205-85.333-85.333v-853.333c0-47.128 38.205-85.333 85.333-85.333h853.333c47.128 0 85.333 38.205 85.333 85.333s-38.205 85.333-85.333 85.333h-768z" />
            <glyph unicode="&#xe90e;" glyph-name="arrow-down-right" d="M24.994 814.327l853.333-853.333c33.325-33.325 87.355-33.325 120.68 0s33.325 87.355 0 120.68l-853.333 853.333c-33.325 33.325-87.355 33.325-120.68 0s-33.325-87.355 0-120.68zM853.333 106.667h-768c-47.128 0-85.333-38.205-85.333-85.333s38.205-85.333 85.333-85.333h853.333c47.128 0 85.333 38.205 85.333 85.333v853.333c0 47.128-38.205 85.333-85.333 85.333s-85.333-38.205-85.333-85.333v-768z" />
            <glyph unicode="&#xe90f;" glyph-name="arrow-down" d="M448 896v-896c0-35.346 28.654-64 64-64s64 28.654 64 64v896c0 35.346-28.654 64-64 64s-64-28.654-64-64zM109.255 493.255c-24.994 24.994-65.516 24.994-90.51 0s-24.994-65.516 0-90.51l448-448c24.994-24.994 65.516-24.994 90.51 0l448 448c24.994 24.994 24.994 65.516 0 90.51s-65.516 24.994-90.51 0l-402.745-402.745-402.745 402.745z" />
            <glyph unicode="&#xe910;" glyph-name="arrow-left-circle" d="M512-64c282.77 0 512 229.23 512 512s-229.23 512-512 512c-282.77 0-512-229.23-512-512s229.23-512 512-512zM512 29.091c-231.357 0-418.909 187.552-418.909 418.909s187.552 418.909 418.909 418.909c231.357 0 418.909-187.552 418.909-418.909s-187.552-418.909-418.909-418.909zM544.913 601.269c18.177 18.177 18.177 47.648 0 65.825s-47.648 18.177-65.825 0l-186.182-186.182c-18.177-18.177-18.177-47.648 0-65.825l186.182-186.182c18.177-18.177 47.648-18.177 65.825 0s18.177 47.648 0 65.825l-153.269 153.269 153.269 153.269zM698.182 494.545h-372.364c-25.706 0-46.545-20.839-46.545-46.545s20.839-46.545 46.545-46.545h372.364c25.706 0 46.545 20.839 46.545 46.545s-20.839 46.545-46.545 46.545z" />
            <glyph unicode="&#xe911;" glyph-name="arrow-left" d="M960 512h-896c-35.346 0-64-28.654-64-64s28.654-64 64-64h896c35.346 0 64 28.654 64 64s-28.654 64-64 64zM154.51 448l402.745 402.745c24.994 24.994 24.994 65.516 0 90.51s-65.516 24.994-90.51 0l-448-448c-24.994-24.994-24.994-65.516 0-90.51l448-448c24.994-24.994 65.516-24.994 90.51 0s24.994 65.516 0 90.51l-402.745 402.745z" />
            <glyph unicode="&#xe912;" glyph-name="arrow-right-circle" d="M512-64c282.77 0 512 229.23 512 512s-229.23 512-512 512c-282.77 0-512-229.23-512-512s229.23-512 512-512zM512 29.091c-231.357 0-418.909 187.552-418.909 418.909s187.552 418.909 418.909 418.909c231.357 0 418.909-187.552 418.909-418.909s-187.552-418.909-418.909-418.909zM479.087 294.731c-18.177-18.177-18.177-47.648 0-65.825s47.648-18.177 65.825 0l186.182 186.182c18.177 18.177 18.177 47.648 0 65.825l-186.182 186.182c-18.177 18.177-47.648 18.177-65.825 0s-18.177-47.648 0-65.825l153.269-153.269-153.269-153.269zM325.818 401.455h372.364c25.706 0 46.545 20.839 46.545 46.545s-20.839 46.545-46.545 46.545h-372.364c-25.706 0-46.545-20.839-46.545-46.545s20.839-46.545 46.545-46.545z" />
            <glyph unicode="&#xe913;" glyph-name="arrow-right" d="M64 384h896c35.346 0 64 28.654 64 64s-28.654 64-64 64h-896c-35.346 0-64-28.654-64-64s28.654-64 64-64zM466.745 45.255c-24.994-24.994-24.994-65.516 0-90.51s65.516-24.994 90.51 0l448 448c24.994 24.994 24.994 65.516 0 90.51l-448 448c-24.994 24.994-65.516 24.994-90.51 0s-24.994-65.516 0-90.51l402.745-402.745-402.745-402.745z" />
            <glyph unicode="&#xe914;" glyph-name="arrow-up-circle" d="M512-64c282.77 0 512 229.23 512 512s-229.23 512-512 512c-282.77 0-512-229.23-512-512s229.23-512 512-512zM512 29.091c-231.357 0-418.909 187.552-418.909 418.909s187.552 418.909 418.909 418.909c231.357 0 418.909-187.552 418.909-418.909s-187.552-418.909-418.909-418.909zM665.269 415.087c18.177-18.177 47.648-18.177 65.825 0s18.177 47.648 0 65.825l-186.182 186.182c-18.177 18.177-47.648 18.177-65.825 0l-186.182-186.182c-18.177-18.177-18.177-47.648 0-65.825s47.648-18.177 65.825 0l153.269 153.269 153.269-153.269zM558.545 261.818v372.364c0 25.706-20.839 46.545-46.545 46.545s-46.545-20.839-46.545-46.545v-372.364c0-25.706 20.839-46.545 46.545-46.545s46.545 20.839 46.545 46.545z" />
            <glyph unicode="&#xe915;" glyph-name="arrow-up-left" d="M999.006 81.673l-853.333 853.333c-33.325 33.325-87.355 33.325-120.68 0s-33.325-87.355 0-120.68l853.333-853.333c33.325-33.325 87.355-33.325 120.68 0s33.325 87.355 0 120.68zM170.667 789.333h768c47.128 0 85.333 38.205 85.333 85.333s-38.205 85.333-85.333 85.333h-853.333c-47.128 0-85.333-38.205-85.333-85.333v-853.333c0-47.128 38.205-85.333 85.333-85.333s85.333 38.205 85.333 85.333v768z" />
            <glyph unicode="&#xe916;" glyph-name="arrow-up-right" d="M145.673-39.006l853.333 853.333c33.325 33.325 33.325 87.355 0 120.68s-87.355 33.325-120.68 0l-853.333-853.333c-33.325-33.325-33.325-87.355 0-120.68s87.355-33.325 120.68 0zM853.333 789.333v-768c0-47.128 38.205-85.333 85.333-85.333s85.333 38.205 85.333 85.333v853.333c0 47.128-38.205 85.333-85.333 85.333h-853.333c-47.128 0-85.333-38.205-85.333-85.333s38.205-85.333 85.333-85.333h768z" />
            <glyph unicode="&#xe917;" glyph-name="arrow-up" d="M576 0v896c0 35.346-28.654 64-64 64s-64-28.654-64-64v-896c0-35.346 28.654-64 64-64s64 28.654 64 64zM512 805.49l402.745-402.745c24.994-24.994 65.516-24.994 90.51 0s24.994 65.516 0 90.51l-448 448c-24.994 24.994-65.516 24.994-90.51 0l-448-448c-24.994-24.994-24.994-65.516 0-90.51s65.516-24.994 90.51 0l402.745 402.745z" />
            <glyph unicode="&#xe918;" glyph-name="at-sign" d="M512 215.273c128.532 0 232.727 104.196 232.727 232.727s-104.196 232.727-232.727 232.727c-128.532 0-232.727-104.196-232.727-232.727s104.196-232.727 232.727-232.727zM512 308.364c-77.119 0-139.636 62.517-139.636 139.636s62.517 139.636 139.636 139.636c77.119 0 139.636-62.517 139.636-139.636s-62.517-139.636-139.636-139.636zM651.636 634.182v-232.727c0-102.825 83.356-186.182 186.182-186.182s186.182 83.356 186.182 186.182v46.545c-0.015 237.934-163.936 444.5-395.641 498.573s-470.126-58.598-575.456-271.945c-105.33-213.347-49.808-471.139 134.009-622.21s447.481-155.605 636.384-10.943c20.409 15.629 24.284 44.845 8.655 65.254s-44.845 24.284-65.254 8.655c-154.557-118.36-370.282-114.65-520.678 8.953s-195.823 334.525-109.644 509.081c86.179 174.557 281.251 266.742 470.828 222.5s323.694-213.25 323.706-407.921v-46.543c0-51.413-41.678-93.091-93.091-93.091s-93.091 41.678-93.091 93.091v232.727c0 25.706-20.839 46.545-46.545 46.545s-46.545-20.839-46.545-46.545z" />
            <glyph unicode="&#xe919;" glyph-name="award" horiz-adv-x="683" d="M341.333 277.333c188.513 0 341.333 152.82 341.333 341.333s-152.82 341.333-341.333 341.333c-188.513 0-341.333-152.82-341.333-341.333s152.82-341.333 341.333-341.333zM341.333 362.667c-141.385 0-256 114.615-256 256s114.615 256 256 256c141.385 0 256-114.615 256-256s-114.615-256-256-256zM532.715-57.92c30.637-18.382 68.947 6.78 64.248 42.198l-51.627 389.12c-3.099 23.359-24.548 39.784-47.908 36.684s-39.784-24.548-36.684-47.908l39.987-301.389-137.446 82.467c-13.512 8.107-30.392 8.107-43.904 0l-137.432-82.459 39.972 300.948c3.103 23.359-13.319 44.81-36.678 47.913s-44.81-13.319-47.913-36.678l-51.627-388.693c-4.705-35.42 33.608-60.588 64.247-42.204l191.382 114.829 191.382-114.829z" />
            <glyph unicode="&#xe91a;" glyph-name="bar-chart-2" d="M910.222-7.111v568.889c0 31.419-25.47 56.889-56.889 56.889s-56.889-25.47-56.889-56.889v-568.889c0-31.419 25.47-56.889 56.889-56.889s56.889 25.47 56.889 56.889zM568.889-7.111v910.222c0 31.419-25.47 56.889-56.889 56.889s-56.889-25.47-56.889-56.889v-910.222c0-31.419 25.47-56.889 56.889-56.889s56.889 25.47 56.889 56.889zM227.556-7.111v341.333c0 31.419-25.47 56.889-56.889 56.889s-56.889-25.47-56.889-56.889v-341.333c0-31.419 25.47-56.889 56.889-56.889s56.889 25.47 56.889 56.889z" />
            <glyph unicode="&#xe91b;" glyph-name="bar-chart" d="M568.889-7.111v568.889c0 31.419-25.47 56.889-56.889 56.889s-56.889-25.47-56.889-56.889v-568.889c0-31.419 25.47-56.889 56.889-56.889s56.889 25.47 56.889 56.889zM910.222-7.111v910.222c0 31.419-25.47 56.889-56.889 56.889s-56.889-25.47-56.889-56.889v-910.222c0-31.419 25.47-56.889 56.889-56.889s56.889 25.47 56.889 56.889zM227.556-7.111v227.556c0 31.419-25.47 56.889-56.889 56.889s-56.889-25.47-56.889-56.889v-227.556c0-31.419 25.47-56.889 56.889-56.889s56.889 25.47 56.889 56.889z" />
            <glyph unicode="&#xe91c;" glyph-name="battery-charging" d="M264.107 746.667c23.564 0 42.667-19.103 42.667-42.667s-19.103-42.667-42.667-42.667h-136.107c-23.564 0-42.667-19.103-42.667-42.667v-341.333c0-23.564 19.103-42.667 42.667-42.667h85.333c23.564 0 42.667-19.103 42.667-42.667s-19.103-42.667-42.667-42.667h-85.333c-70.692 0-128 57.308-128 128v341.333c0 70.692 57.308 128 128 128h136.107zM725.333 746.667c70.692 0 128-57.308 128-128v-341.333c0-70.692-57.308-128-128-128h-136.107c-23.564 0-42.667 19.103-42.667 42.667s19.103 42.667 42.667 42.667h136.107c23.564 0 42.667 19.103 42.667 42.667v341.333c0 23.564-19.103 42.667-42.667 42.667h-85.333c-23.564 0-42.667 19.103-42.667 42.667s19.103 42.667 42.667 42.667h85.333zM1024 405.333v85.333c0 23.564-19.103 42.667-42.667 42.667s-42.667-19.103-42.667-42.667v-85.333c0-23.564 19.103-42.667 42.667-42.667s42.667 19.103 42.667 42.667zM348.499 215.667c-13.071-19.607-7.773-46.097 11.834-59.168s46.097-7.773 59.168 11.834l170.667 256c18.903 28.354-1.423 66.334-35.501 66.334h-176.277l126.444 189.666c13.071 19.607 7.773 46.097-11.834 59.168s-46.097 7.773-59.168-11.834l-170.667-256c-18.903-28.354 1.423-66.334 35.501-66.334h176.277l-126.444-189.666z" />
            <glyph unicode="&#xe91d;" glyph-name="battery" d="M128 746.667h597.333c70.692 0 128-57.308 128-128v-341.333c0-70.692-57.308-128-128-128h-597.333c-70.692 0-128 57.308-128 128v341.333c0 70.692 57.308 128 128 128zM128 661.333c-23.564 0-42.667-19.103-42.667-42.667v-341.333c0-23.564 19.103-42.667 42.667-42.667h597.333c23.564 0 42.667 19.103 42.667 42.667v341.333c0 23.564-19.103 42.667-42.667 42.667h-597.333zM1024 405.333v85.333c0 23.564-19.103 42.667-42.667 42.667s-42.667-19.103-42.667-42.667v-85.333c0-23.564 19.103-42.667 42.667-42.667s42.667 19.103 42.667 42.667z" />
            <glyph unicode="&#xe91e;" glyph-name="bell-off" d="M548.907 85.409c-7.633-13.158-21.695-21.258-36.907-21.258s-29.274 8.099-36.907 21.258c-11.824 20.383-37.933 27.322-58.316 15.498s-27.322-37.933-15.498-58.316c22.899-39.475 65.084-63.773 110.72-63.773s87.821 24.298 110.72 63.773c11.824 20.383 4.885 46.492-15.498 58.316s-46.492 4.885-58.316-15.498zM836.039 416.576c-17.92 65.602-26.464 133.411-25.377 201.409 0.376 23.561-18.418 42.966-41.98 43.343s-42.966-18.418-43.343-41.98c-1.215-76.049 8.34-151.887 28.383-225.258 6.209-22.731 29.67-36.125 52.402-29.916s36.125 29.67 29.916 52.402zM229.457 294.236c43.523 79.792 69.21 186.821 69.21 324.431-0.049 20.97 3.052 41.728 9.2 61.672 6.941 22.519-5.686 46.401-28.205 53.342s-46.401-5.686-53.342-28.205c-8.678-28.151-13.056-57.451-12.986-86.909 0-123.622-22.313-216.594-58.79-283.469-12.214-22.392-25.027-39.903-37.517-53.087-6.746-7.121-11.29-10.907-12.693-11.843-35.125-23.417-18.548-78.167 23.667-78.167h597.333c23.564 0 42.667 19.103 42.667 42.667s-19.103 42.667-42.667 42.667h-505.584c3.245 5.364 6.486 10.996 9.707 16.902zM810.667 618.603c0.163 110.246-60.419 211.616-157.591 263.691s-215.128 46.385-306.836-14.802c-19.602-13.078-24.89-39.57-11.812-59.172s39.57-24.89 59.172-11.812c65.506 43.705 149.76 47.769 219.169 10.573s112.681-109.604 112.565-188.351c-0.035-23.564 19.039-42.695 42.603-42.73s42.695 19.039 42.73 42.603zM12.497 887.163l938.667-938.667c16.662-16.662 43.677-16.662 60.34 0s16.662 43.677 0 60.34l-938.667 938.667c-16.662 16.662-43.677 16.662-60.34 0s-16.662-43.677 0-60.34z" />
            <glyph unicode="&#xe91f;" glyph-name="bell" d="M744.727 634.182c0-150.121 28.022-266.879 75.502-353.925 3.515-6.443 7.050-12.587 10.59-18.439h-637.638c3.54 5.851 7.075 11.995 10.59 18.439 47.48 87.046 75.502 203.804 75.502 353.925 0 128.532 104.196 232.727 232.727 232.727s232.727-104.196 232.727-232.727zM837.818 634.182c0 179.944-145.874 325.818-325.818 325.818s-325.818-145.874-325.818-325.818c0-134.97-24.342-236.394-64.135-309.348-13.324-24.427-27.302-43.531-40.928-57.913-7.36-7.768-12.316-11.899-13.847-12.92-38.318-25.545-20.234-85.274 25.819-85.274h837.818c46.052 0 64.137 59.728 25.819 85.274-1.531 1.021-6.488 5.151-13.847 12.92-13.626 14.383-27.604 33.486-40.928 57.913-39.793 72.954-64.135 174.378-64.135 309.348zM552.262 52.446c-8.327-14.355-23.667-23.19-40.262-23.19s-31.935 8.836-40.262 23.19c-12.899 22.236-41.381 29.805-63.617 16.907s-29.805-41.381-16.907-63.617c24.981-43.064 71-69.571 120.785-69.571s95.805 26.507 120.785 69.571c12.899 22.236 5.329 50.718-16.907 63.617s-50.718 5.329-63.617-16.907z" />
            <glyph unicode="&#xe920;" glyph-name="bluetooth" horiz-adv-x="597" d="M341.333 344.994l131.66-131.66-131.66-131.66v263.32zM341.333 814.327l131.66-131.66-131.66-131.66v263.32zM238.327 448l-204.497-204.497c-16.662-16.662-16.662-43.677 0-60.34s43.677-16.662 60.34 0l161.83 161.83v-366.327c0-38.012 45.958-57.048 72.837-30.17l234.667 234.667c16.662 16.662 16.662 43.677 0 60.34l-204.497 204.497 204.497 204.497c16.662 16.662 16.662 43.677 0 60.34l-234.667 234.667c-26.879 26.879-72.837 7.842-72.837-30.17v-366.327l-161.83 161.83c-16.662 16.662-43.677 16.662-60.34 0s-16.662-43.677 0-60.34l204.497-204.497z" />
            <glyph unicode="&#xe921;" glyph-name="bold" d="M85.333 903.111c0 31.419 25.47 56.889 56.889 56.889h455.111c157.094 0 284.444-127.35 284.444-284.444s-127.35-284.444-284.444-284.444h-455.111c-31.419 0-56.889 25.47-56.889 56.889v455.111zM199.111 846.222v-341.333h398.222c94.257 0 170.667 76.41 170.667 170.667s-76.41 170.667-170.667 170.667h-398.222zM85.333 448c0 31.419 25.47 56.889 56.889 56.889h512c157.094 0 284.444-127.35 284.444-284.444s-127.35-284.444-284.444-284.444h-512c-31.419 0-56.889 25.47-56.889 56.889v455.111zM199.111 391.111v-341.333h455.111c94.257 0 170.667 76.41 170.667 170.667s-76.41 170.667-170.667 170.667h-455.111z" />
            <glyph unicode="&#xe922;" glyph-name="book-open" d="M0 866.909c0 25.706 20.839 46.545 46.545 46.545h279.273c128.532 0 232.727-104.196 232.727-232.727v-651.636h-93.091c0 51.413-41.678 93.091-93.091 93.091h-325.818c-25.706 0-46.545 20.839-46.545 46.545v698.182zM93.091 820.364v-605.091h279.273c33.912 0 65.706-9.067 93.091-24.908v490.362c0 77.119-62.517 139.636-139.636 139.636h-232.727zM558.545 29.091c0-62.061-93.091-62.061-93.091 0v161.274c55.65-32.192 93.091-92.36 93.091-161.274zM977.455 913.455h-279.273c-128.532 0-232.727-104.196-232.727-232.727v-651.636h93.091c0 51.413 41.678 93.091 93.091 93.091h325.818c25.706 0 46.545 20.839 46.545 46.545v698.182c0 25.706-20.839 46.545-46.545 46.545zM930.909 820.364v-605.091h-279.273c-33.912 0-65.706-9.067-93.091-24.908v490.362c0 77.119 62.517 139.636 139.636 139.636h232.727zM465.455 29.091c0-62.061 93.091-62.061 93.091 0v161.274c-55.65-32.192-93.091-92.36-93.091-161.274z" />
            <glyph unicode="&#xe923;" glyph-name="book" d="M186.182 98.909c0 38.56 31.259 69.818 69.818 69.818h628.364c25.706 0 46.545 20.839 46.545 46.545s-20.839 46.545-46.545 46.545h-628.364c-89.972 0-162.909-72.937-162.909-162.909 0-25.706 20.839-46.545 46.545-46.545s46.545 20.839 46.545 46.545zM256 960h628.364c25.706 0 46.545-20.839 46.545-46.545v-930.909c0-25.706-20.839-46.545-46.545-46.545h-628.364c-89.972 0-162.909 72.937-162.909 162.909v698.182c0 89.972 72.937 162.909 162.909 162.909zM837.818 866.909h-581.818c-38.56 0-69.818-31.259-69.818-69.818v-698.182c0-38.56 31.259-69.818 69.818-69.818h581.818v837.818z" />
            <glyph unicode="&#xe924;" glyph-name="bookmark" d="M512 180.28l-328.641-234.743c-33.888-24.205-80.959 0.018-80.959 41.663v819.2c0 84.831 68.769 153.6 153.6 153.6h512c84.831 0 153.6-68.769 153.6-153.6v-819.2c0-41.645-47.072-65.869-80.959-41.663l-328.641 234.743zM819.2 86.691v719.709c0 28.277-22.923 51.2-51.2 51.2h-512c-28.277 0-51.2-22.923-51.2-51.2v-719.709l277.441 198.172c17.802 12.716 41.717 12.716 59.519 0l277.441-198.172z" />
            <glyph unicode="&#xe925;" glyph-name="box" d="M957.217 648.348c-0.049 47.715-25.5 91.745-66.783 115.58l-311.824 178.186c-41.153 23.76-92.068 23.76-133.393-0.099l-311.48-177.988c-41.455-23.933-66.906-67.963-66.955-115.633v-356.22c0.049-47.715 25.5-91.745 66.783-115.58l311.824-178.186c41.153-23.76 92.068-23.76 133.393 0.099l311.48 177.988c41.455 23.933 66.906 67.963 66.955 115.633v356.22zM845.913 253.708l-311.48-177.988c-13.947-8.052-30.919-8.052-44.694-0.099l-311.824 178.186c-13.589 7.846-22.073 22.523-22.089 38.413v356.128c0.016 15.844 8.5 30.521 22.261 38.466l311.48 177.988c13.947 8.052 30.919 8.052 44.694 0.099l311.824-178.186c13.589-7.846 22.073-22.523 22.089-38.413v-356.128c-0.016-15.844-8.5-30.521-22.261-38.466zM145.618 733.189c-21.284 12.312-48.519 5.039-60.831-16.245s-5.039-48.519 16.245-60.831l388.675-224.835c13.791-7.978 30.795-7.978 44.586 0l388.675 224.835c21.284 12.312 28.557 39.547 16.245 60.831s-39.547 28.557-60.831 16.245l-366.382-211.939-366.382 211.939zM556.522 21.482v448.779c0 24.589-19.933 44.522-44.522 44.522s-44.522-19.933-44.522-44.522v-448.779c0-24.589 19.933-44.522 44.522-44.522s44.522 19.933 44.522 44.522z" />
            <glyph unicode="&#xe926;" glyph-name="briefcase" d="M139.636 727.273h744.727c77.119 0 139.636-62.517 139.636-139.636v-465.455c0-77.119-62.517-139.636-139.636-139.636h-744.727c-77.119 0-139.636 62.517-139.636 139.636v465.455c0 77.119 62.517 139.636 139.636 139.636zM139.636 634.182c-25.706 0-46.545-20.839-46.545-46.545v-465.455c0-25.706 20.839-46.545 46.545-46.545h744.727c25.706 0 46.545 20.839 46.545 46.545v465.455c0 25.706-20.839 46.545-46.545 46.545h-744.727zM744.727 29.091v744.727c0 77.119-62.517 139.636-139.636 139.636h-186.182c-77.119 0-139.636-62.517-139.636-139.636v-744.727c0-25.706 20.839-46.545 46.545-46.545s46.545 20.839 46.545 46.545v744.727c0 25.706 20.839 46.545 46.545 46.545h186.182c25.706 0 46.545-20.839 46.545-46.545v-744.727c0-25.706 20.839-46.545 46.545-46.545s46.545 20.839 46.545 46.545z" />
            <glyph unicode="&#xe927;" glyph-name="calendar" d="M186.182 866.909h651.636c77.119 0 139.636-62.517 139.636-139.636v-651.636c0-77.119-62.517-139.636-139.636-139.636h-651.636c-77.119 0-139.636 62.517-139.636 139.636v651.636c0 77.119 62.517 139.636 139.636 139.636zM186.182 773.818c-25.706 0-46.545-20.839-46.545-46.545v-651.636c0-25.706 20.839-46.545 46.545-46.545h651.636c25.706 0 46.545 20.839 46.545 46.545v651.636c0 25.706-20.839 46.545-46.545 46.545h-651.636zM651.636 913.455v-186.182c0-25.706 20.839-46.545 46.545-46.545s46.545 20.839 46.545 46.545v186.182c0 25.706-20.839 46.545-46.545 46.545s-46.545-20.839-46.545-46.545zM279.273 913.455v-186.182c0-25.706 20.839-46.545 46.545-46.545s46.545 20.839 46.545 46.545v186.182c0 25.706-20.839 46.545-46.545 46.545s-46.545-20.839-46.545-46.545zM93.091 494.545h837.818c25.706 0 46.545 20.839 46.545 46.545s-20.839 46.545-46.545 46.545h-837.818c-25.706 0-46.545-20.839-46.545-46.545s20.839-46.545 46.545-46.545z" />
            <glyph unicode="&#xe928;" glyph-name="camera-off" d="M12.497 887.163l938.667-938.667c16.662-16.662 43.677-16.662 60.34 0s16.662 43.677 0 60.34l-938.667 938.667c-16.662 16.662-43.677 16.662-60.34 0s-16.662-43.677 0-60.34zM128 746.667h128c23.564 0 42.667-19.103 42.667-42.667 0-21.881-16.471-39.915-37.691-42.38l-4.976-0.287h-128c-21.881 0-39.915-16.471-42.38-37.691l-0.287-4.976v-469.333c0-21.881 16.471-39.915 37.691-42.38l4.976-0.287h768c23.564 0 42.667-19.103 42.667-42.667 0-21.881-16.471-39.915-37.691-42.38l-4.976-0.287h-768c-68.168 0-123.89 53.287-127.783 120.479l-0.217 7.521v469.333c0 68.168 53.287 123.89 120.479 127.783l7.521 0.217zM384 874.667h256c12.483 0 24.242-5.459 32.289-14.775l3.212-4.224 72.667-109.001h147.832c68.168 0 123.89-53.287 127.783-120.479l0.217-7.521v-398.507c0-23.564-19.103-42.667-42.667-42.667-21.881 0-39.915 16.471-42.38 37.691l-0.287 4.976v398.507c0 21.881-16.471 39.915-37.691 42.38l-4.976 0.287h-170.667c-12.483 0-24.242 5.459-32.289 14.775l-3.212 4.224-72.667 109.001h-233.165c-23.564 0-42.667 19.103-42.667 42.667 0 21.881 16.471 39.915 37.691 42.38l4.976 0.287zM390.626 580.492c19.447 13.307 46 8.329 59.307-11.118s8.329-46-11.118-59.307c-42.443-29.042-63.383-80.667-53.165-131.070s49.611-89.796 100.015-100.015c50.403-10.219 102.028 10.721 131.070 53.165 13.307 19.447 39.859 24.425 59.307 11.118s24.425-39.859 11.118-59.307c-48.404-70.739-134.445-105.639-218.45-88.608s-149.66 82.686-166.691 166.691c-17.031 84.005 17.869 170.046 88.608 218.45z" />
            <glyph unicode="&#xe929;" glyph-name="camera" d="M748.168 746.667h147.832c70.692 0 128-57.308 128-128v-469.333c0-70.692-57.308-128-128-128h-768c-70.692 0-128 57.308-128 128v469.333c0 70.692 57.308 128 128 128h147.832l72.667 109.001c7.913 11.87 21.235 18.999 35.501 18.999h256c14.266 0 27.588-7.13 35.501-18.999l72.667-109.001zM406.835 789.333l-72.667-109.001c-7.913-11.87-21.235-18.999-35.501-18.999h-170.667c-23.564 0-42.667-19.103-42.667-42.667v-469.333c0-23.564 19.103-42.667 42.667-42.667h768c23.564 0 42.667 19.103 42.667 42.667v469.333c0 23.564-19.103 42.667-42.667 42.667h-170.667c-14.266 0-27.588 7.13-35.501 18.999l-72.667 109.001h-210.331zM512 192c117.821 0 213.333 95.513 213.333 213.333s-95.513 213.333-213.333 213.333c-117.821 0-213.333-95.513-213.333-213.333s95.513-213.333 213.333-213.333zM512 277.333c-70.692 0-128 57.308-128 128s57.308 128 128 128c70.692 0 128-57.308 128-128s-57.308-128-128-128z" />
            <glyph unicode="&#xe92a;" glyph-name="cast" d="M51.691 491.933c216.325-24.060 387.092-194.826 411.152-411.152 2.842-25.549-15.566-48.564-41.115-51.405s-48.564 15.566-51.405 41.115c-19.248 173.060-155.861 309.673-328.921 328.921-25.549 2.842-43.957 25.856-41.115 51.405 2.436 21.899 19.692 38.552 40.662 41.073l5.313 0.331 5.43-0.289zM884.364 866.909c77.119 0 139.636-62.517 139.636-139.636v-558.545c0-77.119-62.517-139.636-139.636-139.636h-279.273c-25.706 0-46.545 20.839-46.545 46.545s20.839 46.545 46.545 46.545h279.273c25.706 0 46.545 20.839 46.545 46.545v558.545c0 25.706-20.839 46.545-46.545 46.545h-744.727c-25.706 0-46.545-20.839-46.545-46.545v-93.091c0-25.706-20.839-46.545-46.545-46.545s-46.545 20.839-46.545 46.545v93.091c0 77.119 62.517 139.636 139.636 139.636h744.727zM55.847 302.77c109.714-22.376 195.457-108.118 217.833-217.833 5.137-25.188-11.118-49.771-36.305-54.908s-49.771 11.118-54.908 36.305c-14.917 73.143-72.079 130.305-145.222 145.222-25.188 5.137-41.442 29.72-36.305 54.908s29.72 41.442 54.908 36.305zM13.633 42.724c18.177-18.177 47.648-18.177 65.825 0s18.177 47.648 0 65.825c-18.177 18.177-47.648 18.177-65.825 0s-18.177-47.648 0-65.825z" />
            <glyph unicode="&#xe92b;" glyph-name="check-circle" d="M930.909 490.822v-42.822c-0.106-185.495-122.225-348.85-300.134-401.452s-369.225 18.080-470.2 173.715c-100.975 155.635-87.556 359.149 32.982 500.177s319.478 185.977 488.939 110.469c23.481-10.462 50.997 0.091 61.46 23.572s-0.091 50.997-23.572 61.46c-207.119 92.287-450.269 37.35-597.592-135.018s-163.725-421.107-40.311-611.328c123.414-190.221 357.246-276.609 574.689-212.318s366.7 263.947 366.83 490.696v42.848c0 25.706-20.839 46.545-46.545 46.545s-46.545-20.839-46.545-46.545zM405.276 526.993c-18.177 18.177-47.648 18.177-65.825 0s-18.177-47.648 0-65.825l139.636-139.636c18.184-18.184 47.667-18.176 65.842 0.016l465.455 465.92c18.168 18.186 18.153 47.657-0.033 65.825s-47.657 18.153-65.825-0.033l-432.542-432.974-106.707 106.707z" />
            <glyph unicode="&#xe92c;" glyph-name="check-square" d="M487.619 419.436l-111.806 111.806c-19.043 19.043-49.917 19.043-68.96 0s-19.043-49.917 0-68.96l146.286-146.286c19.043-19.043 49.917-19.043 68.96 0l487.619 487.619c19.043 19.043 19.043 49.917 0 68.96s-49.917 19.043-68.96 0l-453.139-453.139zM877.714 448v-341.333c0-26.93-21.831-48.762-48.762-48.762h-682.667c-26.93 0-48.762 21.831-48.762 48.762v682.667c0 26.93 21.831 48.762 48.762 48.762h536.381c26.93 0 48.762 21.831 48.762 48.762s-21.831 48.762-48.762 48.762h-536.381c-80.791 0-146.286-65.494-146.286-146.286v-682.667c0-80.791 65.494-146.286 146.286-146.286h682.667c80.791 0 146.286 65.494 146.286 146.286v341.333c0 26.93-21.831 48.762-48.762 48.762s-48.762-21.831-48.762-48.762z" />
            <glyph unicode="&#xe92d;" glyph-name="check" d="M341.333 215.564l-244.218 244.218c-22.216 22.216-58.237 22.216-80.453 0s-22.216-58.237 0-80.453l284.444-284.444c22.216-22.216 58.237-22.216 80.453 0l625.778 625.778c22.216 22.216 22.216 58.237 0 80.453s-58.237 22.216-80.453 0l-585.551-585.551z" />
            <glyph unicode="&#xe92e;" glyph-name="chevron-down" d="M512 332.011l-387.137 387.137c-28.564 28.564-74.876 28.564-103.44 0s-28.564-74.876 0-103.44l438.857-438.857c28.564-28.564 74.876-28.564 103.44 0l438.857 438.857c28.564 28.564 28.564 74.876 0 103.44s-74.876 28.564-103.44 0l-387.137-387.137z" />
            <glyph unicode="&#xe92f;" glyph-name="chevron-left" d="M396.011 448l387.137 387.137c28.564 28.564 28.564 74.876 0 103.44s-74.876 28.564-103.44 0l-438.857-438.857c-28.564-28.564-28.564-74.876 0-103.44l438.857-438.857c28.564-28.564 74.876-28.564 103.44 0s28.564 74.876 0 103.44l-387.137 387.137z" />
            <glyph unicode="&#xe930;" glyph-name="chevron-right" d="M627.989 448l-387.137-387.137c-28.564-28.564-28.564-74.876 0-103.44s74.876-28.564 103.44 0l438.857 438.857c28.564 28.564 28.564 74.876 0 103.44l-438.857 438.857c-28.564 28.564-74.876 28.564-103.44 0s-28.564-74.876 0-103.44l387.137-387.137z" />
            <glyph unicode="&#xe931;" glyph-name="chevron-up" d="M512 563.989l387.137-387.137c28.564-28.564 74.876-28.564 103.44 0s28.564 74.876 0 103.44l-438.857 438.857c-28.564 28.564-74.876 28.564-103.44 0l-438.857-438.857c-28.564-28.564-28.564-74.876 0-103.44s74.876-28.564 103.44 0l387.137 387.137z" />
            <glyph unicode="&#xe932;" glyph-name="chevrons-down" d="M512 112.582l-313.994 313.994c-28.564 28.564-74.876 28.564-103.44 0s-28.564-74.876 0-103.44l365.714-365.714c28.564-28.564 74.876-28.564 103.44 0l365.714 365.714c28.564 28.564 28.564 74.876 0 103.44s-74.876 28.564-103.44 0l-313.994-313.994zM198.006 938.577c-28.564 28.564-74.876 28.564-103.44 0s-28.564-74.876 0-103.44l365.714-365.714c28.564-28.564 74.876-28.564 103.44 0l365.714 365.714c28.564 28.564 28.564 74.876 0 103.44s-74.876 28.564-103.44 0l-313.994-313.994-313.994 313.994z" />
            <glyph unicode="&#xe933;" glyph-name="chevrons-left" d="M490.577 761.994c28.564 28.564 28.564 74.876 0 103.44s-74.876 28.564-103.44 0l-365.714-365.714c-28.564-28.564-28.564-74.876 0-103.44l365.714-365.714c28.564-28.564 74.876-28.564 103.44 0s28.564 74.876 0 103.44l-313.994 313.994 313.994 313.994zM1002.577 761.994c28.564 28.564 28.564 74.876 0 103.44s-74.876 28.564-103.44 0l-365.714-365.714c-28.564-28.564-28.564-74.876 0-103.44l365.714-365.714c28.564-28.564 74.876-28.564 103.44 0s28.564 74.876 0 103.44l-313.994 313.994 313.994 313.994z" />
            <glyph unicode="&#xe934;" glyph-name="chevrons-right" d="M847.418 448l-313.994-313.994c-28.564-28.564-28.564-74.876 0-103.44s74.876-28.564 103.44 0l365.714 365.714c28.564 28.564 28.564 74.876 0 103.44l-365.714 365.714c-28.564 28.564-74.876 28.564-103.44 0s-28.564-74.876 0-103.44l313.994-313.994zM335.418 448l-313.994-313.994c-28.564-28.564-28.564-74.876 0-103.44s74.876-28.564 103.44 0l365.714 365.714c28.564 28.564 28.564 74.876 0 103.44l-365.714 365.714c-28.564 28.564-74.876 28.564-103.44 0s-28.564-74.876 0-103.44l313.994-313.994z" />
            <glyph unicode="&#xe935;" glyph-name="chevrons-up" d="M512 783.418l313.994-313.994c28.564-28.564 74.876-28.564 103.44 0s28.564 74.876 0 103.44l-365.714 365.714c-28.564 28.564-74.876 28.564-103.44 0l-365.714-365.714c-28.564-28.564-28.564-74.876 0-103.44s74.876-28.564 103.44 0l313.994 313.994zM825.994-42.577c28.564-28.564 74.876-28.564 103.44 0s28.564 74.876 0 103.44l-365.714 365.714c-28.564 28.564-74.876 28.564-103.44 0l-365.714-365.714c-28.564-28.564-28.564-74.876 0-103.44s74.876-28.564 103.44 0l313.994 313.994 313.994-313.994z" />
            <glyph unicode="&#xe936;" glyph-name="chrome" d="M512-64c282.77 0 512 229.23 512 512s-229.23 512-512 512c-282.77 0-512-229.23-512-512s229.23-512 512-512zM512 29.091c-231.357 0-418.909 187.552-418.909 418.909s187.552 418.909 418.909 418.909c231.357 0 418.909-187.552 418.909-418.909s-187.552-418.909-418.909-418.909zM512 215.273c128.532 0 232.727 104.196 232.727 232.727s-104.196 232.727-232.727 232.727c-128.532 0-232.727-104.196-232.727-232.727s104.196-232.727 232.727-232.727zM512 308.364c-77.119 0-139.636 62.517-139.636 139.636s62.517 139.636 139.636 139.636c77.119 0 139.636-62.517 139.636-139.636s-62.517-139.636-139.636-139.636zM938.822 680.727h-426.822c-25.706 0-46.545-20.839-46.545-46.545s20.839-46.545 46.545-46.545h426.822c25.706 0 46.545 20.839 46.545 46.545s-20.839 46.545-46.545 46.545zM97.012 701.185l213.644-369.571c12.865-22.255 41.336-29.867 63.592-17.002s29.867 41.336 17.002 63.592l-213.644 369.571c-12.865 22.255-41.336 29.867-63.592 17.002s-29.867-41.336-17.002-63.592zM500.188-37.919l213.178 369.571c12.844 22.267 5.206 50.731-17.062 63.576s-50.731 5.206-63.576-17.062l-213.178-369.571c-12.844-22.267-5.206-50.731 17.062-63.576s50.731-5.206 63.576 17.062z" />
            <glyph unicode="&#xe937;" glyph-name="circle" d="M512-64c282.77 0 512 229.23 512 512s-229.23 512-512 512c-282.77 0-512-229.23-512-512s229.23-512 512-512zM512 29.091c-231.357 0-418.909 187.552-418.909 418.909s187.552 418.909 418.909 418.909c231.357 0 418.909-187.552 418.909-418.909s-187.552-418.909-418.909-418.909z" />
            <glyph unicode="&#xe938;" glyph-name="clipboard" d="M698.182 773.818h93.091c25.706 0 46.545-20.839 46.545-46.545v-651.636c0-25.706-20.839-46.545-46.545-46.545h-558.545c-25.706 0-46.545 20.839-46.545 46.545v651.636c0 25.706 20.839 46.545 46.545 46.545h93.091c25.706 0 46.545 20.839 46.545 46.545s-20.839 46.545-46.545 46.545h-93.091c-77.119 0-139.636-62.517-139.636-139.636v-651.636c0-77.119 62.517-139.636 139.636-139.636h558.545c77.119 0 139.636 62.517 139.636 139.636v651.636c0 77.119-62.517 139.636-139.636 139.636h-93.091c-25.706 0-46.545-20.839-46.545-46.545s20.839-46.545 46.545-46.545zM372.364 960h279.273c51.413 0 93.091-41.678 93.091-93.091v-93.091c0-51.413-41.678-93.091-93.091-93.091h-279.273c-51.413 0-93.091 41.678-93.091 93.091v93.091c0 51.413 41.678 93.091 93.091 93.091zM372.364 866.909v-93.091h279.273v93.091h-279.273z" />
            <glyph unicode="&#xe939;" glyph-name="clock" d="M512-64c282.77 0 512 229.23 512 512s-229.23 512-512 512c-282.77 0-512-229.23-512-512s229.23-512 512-512zM512 29.091c-231.357 0-418.909 187.552-418.909 418.909s187.552 418.909 418.909 418.909c231.357 0 418.909-187.552 418.909-418.909s-187.552-418.909-418.909-418.909zM558.545 476.767v250.506c0 25.706-20.839 46.545-46.545 46.545s-46.545-20.839-46.545-46.545v-279.273c0-17.63 9.961-33.747 25.73-41.632l186.182-93.091c22.992-11.496 50.951-2.177 62.447 20.816s2.177 50.951-20.816 62.447l-160.452 80.226z" />
            <glyph unicode="&#xe93a;" glyph-name="cloud-drizzle" d="M298.667 149.333v-85.333c0-23.564 19.103-42.667 42.667-42.667s42.667 19.103 42.667 42.667v85.333c0 23.564-19.103 42.667-42.667 42.667s-42.667-19.103-42.667-42.667zM298.667 405.333v-85.333c0-23.564 19.103-42.667 42.667-42.667s42.667 19.103 42.667 42.667v85.333c0 23.564-19.103 42.667-42.667 42.667s-42.667-19.103-42.667-42.667zM640 149.333v-85.333c0-23.564 19.103-42.667 42.667-42.667s42.667 19.103 42.667 42.667v85.333c0 23.564-19.103 42.667-42.667 42.667s-42.667-19.103-42.667-42.667zM640 405.333v-85.333c0-23.564 19.103-42.667 42.667-42.667s42.667 19.103 42.667 42.667v85.333c0 23.564-19.103 42.667-42.667 42.667s-42.667-19.103-42.667-42.667zM469.333 64v-85.333c0-23.564 19.103-42.667 42.667-42.667s42.667 19.103 42.667 42.667v85.333c0 23.564-19.103 42.667-42.667 42.667s-42.667-19.103-42.667-42.667zM469.333 320v-85.333c0-23.564 19.103-42.667 42.667-42.667s42.667 19.103 42.667 42.667v85.333c0 23.564-19.103 42.667-42.667 42.667s-42.667-19.103-42.667-42.667zM745.792 704c-51.177 144.931-184.843 246.618-340.455 255.38-166.829 9.394-320.584-90.172-380.262-246.245s-11.58-332.823 118.956-437.133c18.409-14.71 45.257-11.712 59.967 6.697s11.712 45.257-6.697 59.967c-101.528 81.13-138.938 218.602-92.521 339.993s166.003 198.831 295.76 191.524c129.756-7.307 239.893-97.683 272.389-223.517 4.865-18.837 21.856-31.998 41.311-31.998h53.76c80.688-0.095 150.314-56.754 166.814-135.789s-24.641-158.818-98.597-191.209c-21.585-9.453-31.419-34.615-21.966-56.2s34.615-31.419 56.2-21.966c110.935 48.586 172.646 168.261 147.896 286.813s-129.188 203.541-250.296 203.683h-22.258z" />
            <glyph unicode="&#xe93b;" glyph-name="cloud-lightning" d="M745.793 704c-53.753 152.248-198.188 255.971-362.040 255.971-175.091 0-328.010-118.44-371.798-287.967s32.646-347.208 185.836-432c20.617-11.412 46.581-3.949 57.992 16.667s3.949 46.581-16.667 57.992c-119.147 65.95-178.596 204.146-144.539 336s152.994 223.975 289.176 223.975c136.182 0 255.119-92.12 289.176-223.975 4.865-18.836 21.856-31.996 41.311-31.996h53.76c87.723 0.088 161.205-66.278 170.017-153.515s-49.914-166.957-135.841-184.405c-23.093-4.689-38.012-27.211-33.323-50.304s27.211-38.012 50.304-33.323c128.891 26.172 216.979 145.753 203.761 276.608s-123.44 230.404-254.961 230.272h-22.164zM433.833 2.334c-13.071-19.607-7.773-46.097 11.834-59.168s46.097-7.773 59.168 11.834l170.667 256c18.903 28.354-1.423 66.334-35.501 66.334h-176.277l126.444 189.666c13.071 19.607 7.773 46.097-11.834 59.168s-46.097 7.773-59.168-11.834l-170.667-256c-18.903-28.354 1.423-66.334 35.501-66.334h176.277l-126.444-189.666z" />
            <glyph unicode="&#xe93c;" glyph-name="cloud-off" horiz-adv-x="1067" d="M235.354 784.006c20.622 11.402 46.582 3.929 57.985-16.693s3.929-46.582-16.693-57.985c-119.983-66.342-179.387-205.854-144.061-338.327s156.309-223.882 294.082-221.667h383.95c19.79 0.023 39.424 3.488 58.027 10.24 22.15 8.040 46.624-3.399 54.663-25.55s-3.399-46.624-25.55-54.663c-27.903-10.128-57.356-15.325-87.090-15.36l-383.313 0.006c-176.252-2.84-331.802 114.684-377.221 285.008s30.958 349.695 185.221 434.992zM454.879 831.986l4.982-0.152c151.296-13.364 279.351-114.371 328.725-255.835h22.030c85.913 0.102 166.149-42.898 213.638-114.493s55.9-162.237 22.394-241.347c-9.19-21.698-34.23-31.838-55.928-22.648s-31.838 34.23-22.648 55.928c22.337 52.74 16.731 113.168-14.929 160.898s-85.15 76.396-142.476 76.329h-53.76c-19.52 0-36.55 13.246-41.354 32.165-31.234 123.001-136.787 212.834-263.2 224-23.473 2.073-40.82 22.783-38.747 46.255s22.783 40.82 46.255 38.747l-4.982 0.152zM55.163 887.163l938.667-938.667c16.662-16.662 43.677-16.662 60.34 0s16.662 43.677 0 60.34l-938.667 938.667c-16.662 16.662-43.677 16.662-60.34 0s-16.662-43.677 0-60.34z" />
            <glyph unicode="&#xe93d;" glyph-name="cloud-rain" d="M640 405.333v-341.333c0-23.564 19.103-42.667 42.667-42.667s42.667 19.103 42.667 42.667v341.333c0 23.564-19.103 42.667-42.667 42.667s-42.667-19.103-42.667-42.667zM298.667 405.333v-341.333c0-23.564 19.103-42.667 42.667-42.667s42.667 19.103 42.667 42.667v341.333c0 23.564-19.103 42.667-42.667 42.667s-42.667-19.103-42.667-42.667zM469.333 320v-341.333c0-23.564 19.103-42.667 42.667-42.667s42.667 19.103 42.667 42.667v341.333c0 23.564-19.103 42.667-42.667 42.667s-42.667-19.103-42.667-42.667zM745.792 704c-51.177 144.931-184.843 246.618-340.455 255.38-166.829 9.394-320.584-90.172-380.262-246.245s-11.58-332.823 118.956-437.133c18.409-14.71 45.257-11.712 59.967 6.697s11.712 45.257-6.697 59.967c-101.528 81.13-138.938 218.602-92.521 339.993s166.003 198.831 295.76 191.524c129.756-7.307 239.893-97.683 272.389-223.517 4.865-18.837 21.856-31.998 41.311-31.998h53.76c80.688-0.095 150.314-56.754 166.814-135.789s-24.641-158.818-98.597-191.209c-21.585-9.453-31.419-34.615-21.966-56.2s34.615-31.419 56.2-21.966c110.935 48.586 172.646 168.261 147.896 286.813s-129.188 203.541-250.296 203.683h-22.258z" />
            <glyph unicode="&#xe93e;" glyph-name="cloud-snow" d="M745.792 661.333c-51.177 144.931-184.843 246.618-340.455 255.38-166.829 9.394-320.584-90.172-380.262-246.245s-11.58-332.823 118.956-437.133c18.409-14.71 45.257-11.712 59.967 6.697s11.712 45.257-6.697 59.967c-101.528 81.13-138.938 218.602-92.521 339.993s166.003 198.831 295.76 191.524c129.756-7.307 239.893-97.683 272.389-223.517 4.865-18.837 21.856-31.998 41.311-31.998h53.76c80.688-0.095 150.314-56.754 166.814-135.789s-24.641-158.818-98.597-191.209c-21.585-9.453-31.419-34.615-21.966-56.2s34.615-31.419 56.2-21.966c110.935 48.586 172.646 168.261 147.896 286.813s-129.188 203.541-250.296 203.683h-22.258zM311.163 247.163c16.662-16.662 43.677-16.662 60.34 0s16.662 43.677 0 60.34c-16.662 16.662-43.677 16.662-60.34 0s-16.662-43.677 0-60.34zM311.163 76.497c16.662-16.662 43.677-16.662 60.34 0s16.662 43.677 0 60.34c-16.662 16.662-43.677 16.662-60.34 0s-16.662-43.677 0-60.34zM481.83 161.83c16.662-16.662 43.677-16.662 60.34 0s16.662 43.677 0 60.34c-16.662 16.662-43.677 16.662-60.34 0s-16.662-43.677 0-60.34zM481.83-8.837c16.662-16.662 43.677-16.662 60.34 0s16.662 43.677 0 60.34c-16.662 16.662-43.677 16.662-60.34 0s-16.662-43.677 0-60.34zM652.497 247.163c16.662-16.662 43.677-16.662 60.34 0s16.662 43.677 0 60.34c-16.662 16.662-43.677 16.662-60.34 0s-16.662-43.677 0-60.34zM652.497 76.497c16.662-16.662 43.677-16.662 60.34 0s16.662 43.677 0 60.34c-16.662 16.662-43.677 16.662-60.34 0s-16.662-43.677 0-60.34z" />
            <glyph unicode="&#xe93f;" glyph-name="cloud" d="M745.803 576c-61.554 174.604-240.869 282.171-426.533 250.548-196.757-33.512-335.038-212.169-318.148-411.044s183.318-351.654 382.909-351.505h383.968c141.385 0 256 114.615 256 256s-114.615 256-256 256h-22.197zM938.667 320c0-94.257-76.41-170.667-170.667-170.667h-384c-155.269-0.116-284.713 118.713-297.85 273.393s94.415 293.636 247.448 319.701c153.033 26.065 300.52-69.452 339.33-219.76 4.864-18.838 21.856-32 41.312-32h53.76c94.257 0 170.667-76.41 170.667-170.667z" />
            <glyph unicode="&#xe940;" glyph-name="code" d="M665.269 201.64c-18.177-18.177-18.177-47.648 0-65.825s47.648-18.177 65.825 0l279.273 279.273c18.177 18.177 18.177 47.648 0 65.825l-279.273 279.273c-18.177 18.177-47.648 18.177-65.825 0s-18.177-47.648 0-65.825l246.36-246.36-246.36-246.36zM112.371 448l246.36 246.36c18.177 18.177 18.177 47.648 0 65.825s-47.648 18.177-65.825 0l-279.273-279.273c-18.177-18.177-18.177-47.648 0-65.825l279.273-279.273c18.177-18.177 47.648-18.177 65.825 0s18.177 47.648 0 65.825l-246.36 246.36z" />
            <glyph unicode="&#xe941;" glyph-name="codepen" d="M486.633 952.48c15.425 10.026 35.308 10.026 50.733 0l465.455-302.545c13.209-8.586 21.179-23.271 21.179-39.026v-325.818c0-15.755-7.969-30.44-21.179-39.026l-465.455-302.545c-15.425-10.026-35.308-10.026-50.733 0l-465.455 302.545c-13.209 8.586-21.179 23.271-21.179 39.026v325.818c0 15.755 7.969 30.44 21.179 39.026l465.455 302.545zM512 857.94l-418.909-272.291v-275.299l418.909-272.291 418.909 272.291v275.299l-418.909 272.291zM558.545-17.455v302.545c0 25.706-20.839 46.545-46.545 46.545s-46.545-20.839-46.545-46.545v-302.545c0-25.706 20.839-46.545 46.545-46.545s46.545 20.839 46.545 46.545zM512 341.907l-438.762 307.134c-21.059 14.742-50.082 9.62-64.824-11.439s-9.62-50.082 11.439-64.824l465.455-325.818c16.027-11.219 37.358-11.219 53.384 0l465.455 325.818c21.059 14.742 26.181 43.764 11.439 64.824s-43.764 26.181-64.824 11.439l-438.762-307.134zM950.762 246.959c21.059-14.742 50.082-9.62 64.824 11.439s9.62 50.082-11.439 64.824l-465.455 325.818c-16.027 11.219-37.358 11.219-53.384 0l-465.455-325.818c-21.059-14.742-26.181-43.764-11.439-64.824s43.764-26.181 64.824-11.439l438.762 307.134 438.762-307.134zM465.455 913.455v-302.545c0-25.706 20.839-46.545 46.545-46.545s46.545 20.839 46.545 46.545v302.545c0 25.706-20.839 46.545-46.545 46.545s-46.545-20.839-46.545-46.545z" />
            <glyph unicode="&#xe942;" glyph-name="codesandbox" d="M957.217 648.348c-0.049 47.715-25.5 91.745-66.783 115.58l-311.824 178.186c-41.153 23.76-92.068 23.76-133.393-0.099l-311.48-177.988c-41.455-23.933-66.906-67.963-66.955-115.633v-356.22c0.049-47.715 25.5-91.745 66.783-115.58l311.824-178.186c41.153-23.76 92.068-23.76 133.393 0.099l311.48 177.988c41.455 23.933 66.906 67.963 66.955 115.633v356.22zM845.913 253.708l-311.48-177.988c-13.947-8.052-30.919-8.052-44.694-0.099l-311.824 178.186c-13.589 7.846-22.073 22.523-22.089 38.413v356.128c0.016 15.844 8.5 30.521 22.261 38.466l311.48 177.988c13.947 8.052 30.919 8.052 44.694 0.099l311.824-178.186c13.589-7.846 22.073-22.523 22.089-38.413v-356.128c-0.016-15.844-8.5-30.521-22.261-38.466zM333.925 855.635c-21.29 12.301-48.522 5.014-60.823-16.277s-5.014-48.522 16.277-60.823l200.348-115.757c13.781-7.963 30.765-7.963 44.546 0l200.348 115.757c21.29 12.301 28.578 39.533 16.277 60.823s-39.533 28.578-60.823 16.277l-178.075-102.888-178.075 102.888zM267.13 328.809v-205.373c0-24.589 19.933-44.522 44.522-44.522s44.522 19.933 44.522 44.522v231.068c0 15.901-8.48 30.595-22.249 38.55l-200.348 115.757c-21.29 12.301-48.522 5.014-60.823-16.277s-5.014-48.522 16.277-60.823l178.099-102.902zM934.969 431.711c21.29 12.301 28.578 39.533 16.277 60.823s-39.533 28.578-60.823 16.277l-200.348-115.757c-13.768-7.955-22.249-22.649-22.249-38.55v-231.068c0-24.589 19.933-44.522 44.522-44.522s44.522 19.933 44.522 44.522v205.373l178.099 102.902zM145.618 733.189c-21.284 12.312-48.519 5.039-60.831-16.245s-5.039-48.519 16.245-60.831l388.675-224.835c13.791-7.978 30.795-7.978 44.586 0l388.675 224.835c21.284 12.312 28.557 39.547 16.245 60.831s-39.547 28.557-60.831 16.245l-366.382-211.939-366.382 211.939zM556.522 21.482v448.779c0 24.589-19.933 44.522-44.522 44.522s-44.522-19.933-44.522-44.522v-448.779c0-24.589 19.933-44.522 44.522-44.522s44.522 19.933 44.522 44.522z" />
            <glyph unicode="&#xe943;" glyph-name="coffee" d="M756.87 537.043h44.522c73.766 0 133.565-59.799 133.565-133.565s-59.799-133.565-133.565-133.565h-44.522c-24.589 0-44.522-19.933-44.522-44.522s19.933-44.522 44.522-44.522h44.522c122.943 0 222.609 99.665 222.609 222.609s-99.665 222.609-222.609 222.609h-44.522c-24.589 0-44.522-19.933-44.522-44.522s19.933-44.522 44.522-44.522zM0 581.565c0 24.589 19.933 44.522 44.522 44.522h712.348c24.589 0 44.522-19.933 44.522-44.522v-400.696c0-122.943-99.665-222.609-222.609-222.609h-356.174c-122.943 0-222.609 99.665-222.609 222.609v400.696zM89.043 537.043v-356.174c0-73.766 59.799-133.565 133.565-133.565h356.174c73.766 0 133.565 59.799 133.565 133.565v356.174h-623.304zM178.087 893.217v-133.565c0-24.589 19.933-44.522 44.522-44.522s44.522 19.933 44.522 44.522v133.565c0 24.589-19.933 44.522-44.522 44.522s-44.522-19.933-44.522-44.522zM356.174 893.217v-133.565c0-24.589 19.933-44.522 44.522-44.522s44.522 19.933 44.522 44.522v133.565c0 24.589-19.933 44.522-44.522 44.522s-44.522-19.933-44.522-44.522zM534.261 893.217v-133.565c0-24.589 19.933-44.522 44.522-44.522s44.522 19.933 44.522 44.522v133.565c0 24.589-19.933 44.522-44.522 44.522s-44.522-19.933-44.522-44.522z" />
            <glyph unicode="&#xe944;" glyph-name="columns" d="M512-64h-358.4c-81.801 0-148.667 63.945-153.339 144.575l-0.261 9.025v716.8c0 81.801 63.945 148.667 144.575 153.339l9.025 0.261h716.8c81.801 0 148.667-63.945 153.339-144.575l0.261-9.025v-716.8c0-81.801-63.945-148.667-144.575-153.339l-9.025-0.261h-358.4zM460.8 857.6h-307.2c-26.257 0-47.898-19.765-50.856-45.229l-0.344-5.971v-716.8c0-26.257 19.765-47.898 45.229-50.856l5.971-0.344h307.2v819.2zM870.4 857.6h-307.2v-819.2h307.2c26.257 0 47.898 19.765 50.856 45.229l0.344 5.971v716.8c0 26.257-19.765 47.898-45.229 50.856l-5.971 0.344z" />
            <glyph unicode="&#xe945;" glyph-name="command" d="M819.2 960c113.108 0 204.8-91.692 204.8-204.8s-91.692-204.8-204.8-204.8h-102.4v-204.8h102.4c113.108 0 204.8-91.692 204.8-204.8s-91.692-204.8-204.8-204.8c-113.108 0-204.8 91.692-204.8 204.8v102.4h-204.8v-102.4c0-113.108-91.692-204.8-204.8-204.8s-204.8 91.692-204.8 204.8c0 113.108 91.692 204.8 204.8 204.8h102.4v204.8h-102.4c-113.108 0-204.8 91.692-204.8 204.8s91.692 204.8 204.8 204.8c113.108 0 204.8-91.692 204.8-204.8v-102.4h204.8v102.4c0 113.108 91.692 204.8 204.8 204.8zM307.2 243.2h-102.4c-56.554 0-102.4-45.846-102.4-102.4s45.846-102.4 102.4-102.4c56.554 0 102.4 45.846 102.4 102.4v102.4zM819.2 243.2h-102.4v-102.4c0-56.554 45.846-102.4 102.4-102.4s102.4 45.846 102.4 102.4c0 56.554-45.846 102.4-102.4 102.4zM614.4 550.4h-204.8v-204.8h204.8v204.8zM204.8 857.6c-56.554 0-102.4-45.846-102.4-102.4s45.846-102.4 102.4-102.4h102.4v102.4c0 56.554-45.846 102.4-102.4 102.4zM819.2 857.6c-56.554 0-102.4-45.846-102.4-102.4v-102.4h102.4c56.554 0 102.4 45.846 102.4 102.4s-45.846 102.4-102.4 102.4z" />
            <glyph unicode="&#xe946;" glyph-name="compass" d="M512-64c282.77 0 512 229.23 512 512s-229.23 512-512 512c-282.77 0-512-229.23-512-512s229.23-512 512-512zM512 29.091c-231.357 0-418.909 187.552-418.909 418.909s187.552 418.909 418.909 418.909c231.357 0 418.909-187.552 418.909-418.909s-187.552-418.909-418.909-418.909zM694.634 689.51c36.387 12.129 71.005-22.489 58.876-58.876l-98.676-296.029c-4.633-13.899-15.539-24.805-29.438-29.438l-296.029-98.676c-36.387-12.129-71.005 22.489-58.876 58.876l98.676 296.029c4.633 13.899 15.539 24.805 29.438 29.438l296.029 98.676zM450.121 509.879l-61.879-185.637 185.637 61.879 61.879 185.637-185.637-61.879z" />
            <glyph unicode="&#xe947;" glyph-name="copy" d="M465.455 634.182h418.909c77.119 0 139.636-62.517 139.636-139.636v-418.909c0-77.119-62.517-139.636-139.636-139.636h-418.909c-77.119 0-139.636 62.517-139.636 139.636v418.909c0 77.119 62.517 139.636 139.636 139.636zM465.455 541.091c-25.706 0-46.545-20.839-46.545-46.545v-418.909c0-25.706 20.839-46.545 46.545-46.545h418.909c25.706 0 46.545 20.839 46.545 46.545v418.909c0 25.706-20.839 46.545-46.545 46.545h-418.909zM186.182 354.909h-46.545c-25.706 0-46.545 20.839-46.545 46.545v418.909c0 25.706 20.839 46.545 46.545 46.545h418.909c25.706 0 46.545-20.839 46.545-46.545v-46.545c0-25.706 20.839-46.545 46.545-46.545s46.545 20.839 46.545 46.545v46.545c0 77.119-62.517 139.636-139.636 139.636h-418.909c-77.119 0-139.636-62.517-139.636-139.636v-418.909c0-77.119 62.517-139.636 139.636-139.636h46.545c25.706 0 46.545 20.839 46.545 46.545s-20.839 46.545-46.545 46.545z" />
            <glyph unicode="&#xe948;" glyph-name="corner-down-left" d="M381.56 521.551c22.216 22.216 22.216 58.237 0 80.453s-58.237 22.216-80.453 0l-284.444-284.444c-22.216-22.216-22.216-58.237 0-80.453l284.444-284.444c22.216-22.216 58.237-22.216 80.453 0s22.216 58.237 0 80.453l-244.218 244.218 244.218 244.218zM910.222 903.111v-398.222c0-94.257-76.41-170.667-170.667-170.667h-682.667c-31.419 0-56.889-25.47-56.889-56.889s25.47-56.889 56.889-56.889h682.667c157.094 0 284.444 127.35 284.444 284.444v398.222c0 31.419-25.47 56.889-56.889 56.889s-56.889-25.47-56.889-56.889z" />
            <glyph unicode="&#xe949;" glyph-name="corner-down-right" d="M886.658 277.333l-244.218-244.218c-22.216-22.216-22.216-58.237 0-80.453s58.237-22.216 80.453 0l284.444 284.444c22.216 22.216 22.216 58.237 0 80.453l-284.444 284.444c-22.216 22.216-58.237 22.216-80.453 0s-22.216-58.237 0-80.453l244.218-244.218zM0 903.111v-398.222c0-157.094 127.35-284.444 284.444-284.444h682.667c31.419 0 56.889 25.47 56.889 56.889s-25.47 56.889-56.889 56.889h-682.667c-94.257 0-170.667 76.41-170.667 170.667v398.222c0 31.419-25.47 56.889-56.889 56.889s-56.889-25.47-56.889-56.889z" />
            <glyph unicode="&#xe94a;" glyph-name="corner-left-down" d="M341.333 73.342l-244.218 244.218c-22.216 22.216-58.237 22.216-80.453 0s-22.216-58.237 0-80.453l284.444-284.444c22.216-22.216 58.237-22.216 80.453 0l284.444 284.444c22.216 22.216 22.216 58.237 0 80.453s-58.237 22.216-80.453 0l-244.218-244.218zM967.111 960h-398.222c-157.094 0-284.444-127.35-284.444-284.444v-682.667c0-31.419 25.47-56.889 56.889-56.889s56.889 25.47 56.889 56.889v682.667c0 94.257 76.41 170.667 170.667 170.667h398.222c31.419 0 56.889 25.47 56.889 56.889s-25.47 56.889-56.889 56.889z" />
            <glyph unicode="&#xe94b;" glyph-name="corner-left-up" d="M341.333 822.658l244.218-244.218c22.216-22.216 58.237-22.216 80.453 0s22.216 58.237 0 80.453l-284.444 284.444c-22.216 22.216-58.237 22.216-80.453 0l-284.444-284.444c-22.216-22.216-22.216-58.237 0-80.453s58.237-22.216 80.453 0l244.218 244.218zM967.111 49.778h-398.222c-94.257 0-170.667 76.41-170.667 170.667v682.667c0 31.419-25.47 56.889-56.889 56.889s-56.889-25.47-56.889-56.889v-682.667c0-157.094 127.35-284.444 284.444-284.444h398.222c31.419 0 56.889 25.47 56.889 56.889s-25.47 56.889-56.889 56.889z" />
            <glyph unicode="&#xe94c;" glyph-name="corner-right-down" d="M682.667 73.342l-244.218 244.218c-22.216 22.216-58.237 22.216-80.453 0s-22.216-58.237 0-80.453l284.444-284.444c22.216-22.216 58.237-22.216 80.453 0l284.444 284.444c22.216 22.216 22.216 58.237 0 80.453s-58.237 22.216-80.453 0l-244.218-244.218zM56.889 846.222h398.222c94.257 0 170.667-76.41 170.667-170.667v-682.667c0-31.419 25.47-56.889 56.889-56.889s56.889 25.47 56.889 56.889v682.667c0 157.094-127.35 284.444-284.444 284.444h-398.222c-31.419 0-56.889-25.47-56.889-56.889s25.47-56.889 56.889-56.889z" />
            <glyph unicode="&#xe94d;" glyph-name="corner-right-up" d="M682.667 822.658l244.218-244.218c22.216-22.216 58.237-22.216 80.453 0s22.216 58.237 0 80.453l-284.444 284.444c-22.216 22.216-58.237 22.216-80.453 0l-284.444-284.444c-22.216-22.216-22.216-58.237 0-80.453s58.237-22.216 80.453 0l244.218 244.218zM56.889-64h398.222c157.094 0 284.444 127.35 284.444 284.444v682.667c0 31.419-25.47 56.889-56.889 56.889s-56.889-25.47-56.889-56.889v-682.667c0-94.257-76.41-170.667-170.667-170.667h-398.222c-31.419 0-56.889-25.47-56.889-56.889s25.47-56.889 56.889-56.889z" />
            <glyph unicode="&#xe94e;" glyph-name="corner-up-left" d="M381.56 862.885c22.216 22.216 22.216 58.237 0 80.453s-58.237 22.216-80.453 0l-284.444-284.444c-22.216-22.216-22.216-58.237 0-80.453l284.444-284.444c22.216-22.216 58.237-22.216 80.453 0s22.216 58.237 0 80.453l-244.218 244.218 244.218 244.218zM1024-7.111v398.222c0 157.094-127.35 284.444-284.444 284.444h-682.667c-31.419 0-56.889-25.47-56.889-56.889s25.47-56.889 56.889-56.889h682.667c94.257 0 170.667-76.41 170.667-170.667v-398.222c0-31.419 25.47-56.889 56.889-56.889s56.889 25.47 56.889 56.889z" />
            <glyph unicode="&#xe94f;" glyph-name="corner-up-right" d="M642.44 374.449c-22.216-22.216-22.216-58.237 0-80.453s58.237-22.216 80.453 0l284.444 284.444c22.216 22.216 22.216 58.237 0 80.453l-284.444 284.444c-22.216 22.216-58.237 22.216-80.453 0s-22.216-58.237 0-80.453l244.218-244.218-244.218-244.218zM113.778-7.111v398.222c0 94.257 76.41 170.667 170.667 170.667h682.667c31.419 0 56.889 25.47 56.889 56.889s-25.47 56.889-56.889 56.889h-682.667c-157.094 0-284.444-127.35-284.444-284.444v-398.222c0-31.419 25.47-56.889 56.889-56.889s56.889 25.47 56.889 56.889z" />
            <glyph unicode="&#xe950;" glyph-name="cpu" d="M256 832h512c70.692 0 128-57.308 128-128v-512c0-70.692-57.308-128-128-128h-512c-70.692 0-128 57.308-128 128v512c0 70.692 57.308 128 128 128zM256 746.667c-23.564 0-42.667-19.103-42.667-42.667v-512c0-23.564 19.103-42.667 42.667-42.667h512c23.564 0 42.667 19.103 42.667 42.667v512c0 23.564-19.103 42.667-42.667 42.667h-512zM341.333 576c0 23.564 19.103 42.667 42.667 42.667h256c23.564 0 42.667-19.103 42.667-42.667v-256c0-23.564-19.103-42.667-42.667-42.667h-256c-23.564 0-42.667 19.103-42.667 42.667v256zM426.667 533.333v-170.667h170.667v170.667h-170.667zM341.333 917.333v-128c0-23.564 19.103-42.667 42.667-42.667s42.667 19.103 42.667 42.667v128c0 23.564-19.103 42.667-42.667 42.667s-42.667-19.103-42.667-42.667zM597.333 917.333v-128c0-23.564 19.103-42.667 42.667-42.667s42.667 19.103 42.667 42.667v128c0 23.564-19.103 42.667-42.667 42.667s-42.667-19.103-42.667-42.667zM341.333 106.667v-128c0-23.564 19.103-42.667 42.667-42.667s42.667 19.103 42.667 42.667v128c0 23.564-19.103 42.667-42.667 42.667s-42.667-19.103-42.667-42.667zM597.333 106.667v-128c0-23.564 19.103-42.667 42.667-42.667s42.667 19.103 42.667 42.667v128c0 23.564-19.103 42.667-42.667 42.667s-42.667-19.103-42.667-42.667zM853.333 533.333h128c23.564 0 42.667 19.103 42.667 42.667s-19.103 42.667-42.667 42.667h-128c-23.564 0-42.667-19.103-42.667-42.667s19.103-42.667 42.667-42.667zM853.333 320h128c23.564 0 42.667 19.103 42.667 42.667s-19.103 42.667-42.667 42.667h-128c-23.564 0-42.667-19.103-42.667-42.667s19.103-42.667 42.667-42.667zM42.667 533.333h128c23.564 0 42.667 19.103 42.667 42.667s-19.103 42.667-42.667 42.667h-128c-23.564 0-42.667-19.103-42.667-42.667s19.103-42.667 42.667-42.667zM42.667 320h128c23.564 0 42.667 19.103 42.667 42.667s-19.103 42.667-42.667 42.667h-128c-23.564 0-42.667-19.103-42.667-42.667s19.103-42.667 42.667-42.667z" />
            <glyph unicode="&#xe951;" glyph-name="credit-card" d="M128 832h768c70.692 0 128-57.308 128-128v-512c0-70.692-57.308-128-128-128h-768c-70.692 0-128 57.308-128 128v512c0 70.692 57.308 128 128 128zM128 746.667c-23.564 0-42.667-19.103-42.667-42.667v-512c0-23.564 19.103-42.667 42.667-42.667h768c23.564 0 42.667 19.103 42.667 42.667v512c0 23.564-19.103 42.667-42.667 42.667h-768zM42.667 490.667h938.667c23.564 0 42.667 19.103 42.667 42.667s-19.103 42.667-42.667 42.667h-938.667c-23.564 0-42.667-19.103-42.667-42.667s19.103-42.667 42.667-42.667z" />
            <glyph unicode="&#xe952;" glyph-name="crop" d="M218.882 917.703l-5.547-640c0-71.062 57.306-128.37 127.998-128.37h640c23.564 0 42.667 19.102 42.667 42.667s-19.103 42.667-42.667 42.667h-640c-23.564 0-42.667 19.102-42.667 42.667l5.545 639.63c0.204 23.563-18.732 42.831-42.295 43.036-23.563 0.203-42.831-18.734-43.035-42.297zM43.036 655.788l640 5.547c23.194-0.002 42.297-19.104 42.297-42.668v-640c0-23.564 19.103-42.667 42.667-42.667s42.667 19.103 42.667 42.667v640c0 70.692-57.308 128-128 128l-640.37-5.548c-23.563-0.204-42.5-19.472-42.297-43.035 0.206-23.563 19.473-42.5 43.036-42.295z" />
            <glyph unicode="&#xe953;" glyph-name="crosshair" d="M512-64c282.77 0 512 229.23 512 512s-229.23 512-512 512c-282.77 0-512-229.23-512-512s229.23-512 512-512zM512 29.091c-231.357 0-418.909 187.552-418.909 418.909s187.552 418.909 418.909 418.909c231.357 0 418.909-187.552 418.909-418.909s-187.552-418.909-418.909-418.909zM977.455 494.545h-186.182c-25.706 0-46.545-20.839-46.545-46.545s20.839-46.545 46.545-46.545h186.182c25.706 0 46.545 20.839 46.545 46.545s-20.839 46.545-46.545 46.545zM232.727 494.545h-186.182c-25.706 0-46.545-20.839-46.545-46.545s20.839-46.545 46.545-46.545h186.182c25.706 0 46.545 20.839 46.545 46.545s-20.839 46.545-46.545 46.545zM558.545 727.273v186.182c0 25.706-20.839 46.545-46.545 46.545s-46.545-20.839-46.545-46.545v-186.182c0-25.706 20.839-46.545 46.545-46.545s46.545 20.839 46.545 46.545zM558.545-17.455v186.182c0 25.706-20.839 46.545-46.545 46.545s-46.545-20.839-46.545-46.545v-186.182c0-25.706 20.839-46.545 46.545-46.545s46.545 20.839 46.545 46.545z" />
            <glyph unicode="&#xe954;" glyph-name="database" d="M512 587.636c256.943 0 465.455 69.504 465.455 186.182s-208.511 186.182-465.455 186.182c-256.943 0-465.455-69.504-465.455-186.182s208.511-186.182 465.455-186.182zM512 680.727c-205.771 0-372.364 55.531-372.364 93.091s166.593 93.091 372.364 93.091c205.771 0 372.364-55.531 372.364-93.091s-166.593-93.091-372.364-93.091zM884.364 448c0-37.832-165.523-93.091-372.364-93.091s-372.364 55.259-372.364 93.091c0 25.706-20.839 46.545-46.545 46.545s-46.545-20.839-46.545-46.545c0-116.914 207.484-186.182 465.455-186.182s465.455 69.268 465.455 186.182c0 25.706-20.839 46.545-46.545 46.545s-46.545-20.839-46.545-46.545zM46.545 773.818v-651.636c0-116.914 207.484-186.182 465.455-186.182s465.455 69.268 465.455 186.182v651.636c0 25.706-20.839 46.545-46.545 46.545s-46.545-20.839-46.545-46.545v-651.636c0-37.832-165.523-93.091-372.364-93.091s-372.364 55.259-372.364 93.091v651.636c0 25.706-20.839 46.545-46.545 46.545s-46.545-20.839-46.545-46.545z" />
            <glyph unicode="&#xe955;" glyph-name="delete" d="M896 832h-554.667c-12.303 0-24.008-5.311-32.11-14.57l-298.667-341.333c-14.076-16.086-14.076-40.106 0-56.192l298.667-341.333c8.102-9.259 19.806-14.57 32.11-14.57h554.667c70.692 0 128 57.308 128 128v512c0 70.692-57.308 128-128 128zM360.694 149.333l-261.333 298.667 261.333 298.667h535.306c23.564 0 42.667-19.103 42.667-42.667v-512c0-23.564-19.103-42.667-42.667-42.667h-535.306zM737.83 606.17l-256-256c-16.662-16.662-16.662-43.677 0-60.34s43.677-16.662 60.34 0l256 256c16.662 16.662 16.662 43.677 0 60.34s-43.677 16.662-60.34 0zM481.83 545.83l256-256c16.662-16.662 43.677-16.662 60.34 0s16.662 43.677 0 60.34l-256 256c-16.662 16.662-43.677 16.662-60.34 0s-16.662-43.677 0-60.34z" />
            <glyph unicode="&#xe956;" glyph-name="disc" d="M512-64c282.77 0 512 229.23 512 512s-229.23 512-512 512c-282.77 0-512-229.23-512-512s229.23-512 512-512zM512 29.091c-231.357 0-418.909 187.552-418.909 418.909s187.552 418.909 418.909 418.909c231.357 0 418.909-187.552 418.909-418.909s-187.552-418.909-418.909-418.909zM512 261.818c102.825 0 186.182 83.356 186.182 186.182s-83.356 186.182-186.182 186.182c-102.825 0-186.182-83.356-186.182-186.182s83.356-186.182 186.182-186.182zM512 354.909c-51.413 0-93.091 41.678-93.091 93.091s41.678 93.091 93.091 93.091c51.413 0 93.091-41.678 93.091-93.091s-41.678-93.091-93.091-93.091z" />
            <glyph unicode="&#xe957;" glyph-name="dollar-sign" horiz-adv-x="597" d="M256 917.333v-938.667c0-23.564 19.103-42.667 42.667-42.667s42.667 19.103 42.667 42.667v938.667c0 23.564-19.103 42.667-42.667 42.667s-42.667-19.103-42.667-42.667zM512 789.333h-320c-106.039 0-192-85.961-192-192s85.961-192 192-192h213.333c58.91 0 106.667-47.756 106.667-106.667s-47.756-106.667-106.667-106.667h-362.667c-23.564 0-42.667-19.103-42.667-42.667s19.103-42.667 42.667-42.667h362.667c106.039 0 192 85.961 192 192s-85.961 192-192 192h-213.333c-58.91 0-106.667 47.756-106.667 106.667s47.756 106.667 106.667 106.667h320c23.564 0 42.667 19.103 42.667 42.667s-19.103 42.667-42.667 42.667z" />
            <glyph unicode="&#xe958;" glyph-name="download-cloud" d="M512 124.34l-140.497 140.497c-16.662 16.662-43.677 16.662-60.34 0s-16.662-43.677 0-60.34l170.667-170.667c16.662-16.662 43.677-16.662 60.34 0l170.667 170.667c16.662 16.662 16.662 43.677 0 60.34s-43.677 16.662-60.34 0l-140.497-140.497zM469.333 448v-384c0-23.564 19.103-42.667 42.667-42.667s42.667 19.103 42.667 42.667v384c0 23.564-19.103 42.667-42.667 42.667s-42.667-19.103-42.667-42.667zM427.555 872.642c-158.030 18.201-310.921-62.918-384.451-203.977s-52.476-312.852 52.944-431.98c15.616-17.647 42.581-19.293 60.228-3.677s19.293 42.581 3.677 60.228c-81.993 92.655-98.369 226.271-41.179 335.984s176.106 172.806 299.018 158.649c122.912-14.157 224.37-102.631 255.121-222.473 4.842-18.869 21.848-32.062 41.328-32.062h53.76c74.481 0.058 140.377-48.148 162.863-119.119s-3.627-148.329-64.526-191.153c-19.275-13.555-23.913-40.168-10.359-59.444s40.168-23.913 59.444-10.359c91.348 64.236 130.517 180.272 96.788 286.729s-132.572 178.766-244.244 178.679h-22.127c-48.395 137.63-171.429 237.061-318.284 253.975z" />
            <glyph unicode="&#xe959;" glyph-name="download" d="M921.6 294.4v-204.8c0-28.277-22.923-51.2-51.2-51.2h-716.8c-28.277 0-51.2 22.923-51.2 51.2v204.8c0 28.277-22.923 51.2-51.2 51.2s-51.2-22.923-51.2-51.2v-204.8c0-84.831 68.769-153.6 153.6-153.6h716.8c84.831 0 153.6 68.769 153.6 153.6v204.8c0 28.277-22.923 51.2-51.2 51.2s-51.2-22.923-51.2-51.2zM512 366.808l-219.796 219.796c-19.995 19.995-52.413 19.995-72.408 0s-19.995-52.413 0-72.408l256-256c19.995-19.995 52.413-19.995 72.408 0l256 256c19.995 19.995 19.995 52.413 0 72.408s-52.413 19.995-72.408 0l-219.796-219.796zM563.2 294.4v614.4c0 28.277-22.923 51.2-51.2 51.2s-51.2-22.923-51.2-51.2v-614.4c0-28.277 22.923-51.2 51.2-51.2s51.2 22.923 51.2 51.2z" />
            <glyph unicode="&#xe95a;" glyph-name="droplet" d="M479.058 914.222c18.172 18.205 47.666 18.218 65.854 0.029l263.436-263.436c119.864-119.786 155.755-299.987 90.931-456.557s-217.59-258.663-387.048-258.663c-169.458 0-322.225 102.094-387.048 258.663s-28.933 336.771 90.892 456.517l262.982 263.447zM512.029 815.484l-230.109-230.516c-93.228-93.167-121.142-233.324-70.724-355.1s169.237-201.182 301.037-201.182c131.801 0 250.619 79.406 301.037 201.182s22.503 261.933-70.735 355.11l-230.506 230.506z" />
            <glyph unicode="&#xe95b;" glyph-name="edit-2" d="M883.939 945.942c61.494-16.477 109.526-64.51 126.004-126.004s-1.104-127.107-46.12-172.124l-628.364-628.364c-5.728-5.728-12.851-9.861-20.666-11.993l-256-69.818c-34.746-9.476-66.629 22.406-57.152 57.152l69.818 256c2.131 7.815 6.265 14.938 11.993 20.666l628.364 628.364c45.017 45.017 110.63 62.598 172.124 46.12zM897.996 713.64c21.5 21.5 29.896 52.836 22.027 82.205s-30.809 52.309-60.178 60.178c-29.369 7.869-60.705-0.527-82.205-22.027l-619.623-619.623-45.134-165.49 165.49 45.134 619.623 619.623z" />
            <glyph unicode="&#xe95c;" glyph-name="edit-3" d="M512-64h460.8c28.277 0 51.2 22.923 51.2 51.2s-22.923 51.2-51.2 51.2h-460.8c-28.277 0-51.2-22.923-51.2-51.2s22.923-51.2 51.2-51.2zM706.196 868.204c40.372 40.372 99.216 56.14 154.366 41.362s98.227-57.854 113.004-113.004c14.777-55.15-0.99-113.994-41.362-154.366l-640-640c-6.562-6.562-14.783-11.217-23.786-13.467l-204.8-51.2c-37.498-9.374-71.464 24.591-62.089 62.089l51.2 204.8c2.251 9.003 6.906 17.224 13.467 23.786l640 640zM229.824 84.632l629.972 629.972c14.504 14.504 20.168 35.643 14.859 55.455s-20.784 35.287-40.596 40.596c-19.812 5.309-40.952-0.356-55.455-14.859l-629.972-629.972-27.064-108.256 108.256 27.064z" />
            <glyph unicode="&#xe95d;" glyph-name="edit" d="M445.217 826.435h-311.652c-73.766 0-133.565-59.799-133.565-133.565v-623.304c0-73.766 59.799-133.565 133.565-133.565h623.304c73.766 0 133.565 59.799 133.565 133.565v311.652c0 24.589-19.933 44.522-44.522 44.522s-44.522-19.933-44.522-44.522v-311.652c0-24.589-19.933-44.522-44.522-44.522h-623.304c-24.589 0-44.522 19.933-44.522 44.522v623.304c0 24.589 19.933 44.522 44.522 44.522h311.652c24.589 0 44.522 19.933 44.522 44.522s-19.933 44.522-44.522 44.522zM944.177 880.177c54.27-54.27 54.27-142.259 0-196.528l-422.957-422.957c-5.706-5.706-12.855-9.754-20.684-11.711l-178.087-44.522c-32.607-8.152-62.142 21.384-53.991 53.991l44.522 178.087c1.957 7.828 6.005 14.978 11.711 20.684l422.957 422.957c54.27 54.27 142.259 54.27 196.528 0zM881.214 746.612c19.496 19.496 19.496 51.106 0 70.602s-51.106 19.496-70.602 0l-414.237-414.237-23.534-94.136 94.136 23.534 414.237 414.237z" />
            <glyph unicode="&#xe95e;" glyph-name="external-link" d="M768 396.8v-307.2c0-28.277-22.923-51.2-51.2-51.2h-563.2c-28.277 0-51.2 22.923-51.2 51.2v563.2c0 28.277 22.923 51.2 51.2 51.2h307.2c28.277 0 51.2 22.923 51.2 51.2s-22.923 51.2-51.2 51.2h-307.2c-84.831 0-153.6-68.769-153.6-153.6v-563.2c0-84.831 68.769-153.6 153.6-153.6h563.2c84.831 0 153.6 68.769 153.6 153.6v307.2c0 28.277-22.923 51.2-51.2 51.2s-51.2-22.923-51.2-51.2zM921.6 857.6v-256c0-28.277 22.923-51.2 51.2-51.2s51.2 22.923 51.2 51.2v307.2c0 28.277-22.923 51.2-51.2 51.2h-307.2c-28.277 0-51.2-22.923-51.2-51.2s22.923-51.2 51.2-51.2h256zM445.804 309.396l563.2 563.2c19.995 19.995 19.995 52.413 0 72.408s-52.413 19.995-72.408 0l-563.2-563.2c-19.995-19.995-19.995-52.413 0-72.408s52.413-19.995 72.408 0z" />
            <glyph unicode="&#xe95f;" glyph-name="eye-off" d="M292.471 727.334c14.301-18.728 10.712-45.504-8.016-59.805-78.294-59.787-143.885-134.469-193.039-219.665 5.352-9.248 11.499-19.325 18.426-30.050 24.524-37.972 53.497-75.97 86.619-111.3 92.657-98.834 198.411-157.181 314.842-157.187 82.589 1.35 162.58 29.091 228.272 79.165 18.741 14.285 45.513 10.673 59.798-8.067s10.673-45.513-8.067-59.798c-80.178-61.116-177.807-94.974-279.305-96.627-144.205 0-270.451 69.653-377.794 184.152-36.878 39.337-68.905 81.339-96.048 123.367-16.4 25.393-27.656 45.405-33.654 57.4-6.2 12.4-5.989 27.039 0.566 39.255 55.949 104.267 133.549 195.362 227.595 267.177 18.728 14.301 45.504 10.712 59.805-8.016zM512 832.002c144.205 0 270.451-69.654 377.794-184.154 36.878-39.337 68.905-81.339 96.048-123.367 16.4-25.393 27.656-45.405 33.654-57.4 6.189-12.378 5.99-26.99-0.534-39.195-27.3-51.072-59.857-99.154-97.142-143.464-15.172-18.030-42.087-20.348-60.117-5.176s-20.348 42.087-5.176 60.117c28.547 33.926 54.005 70.315 76.081 108.732-5.358 9.259-11.513 19.349-18.449 30.090-24.524 37.972-53.497 75.97-86.619 111.3-92.657 98.835-198.411 157.182-315.638 157.182-26.857 0.062-53.629-2.998-79.777-9.118-22.944-5.371-45.897 8.875-51.268 31.819s8.875 45.897 31.819 51.268c32.588 7.628 65.953 11.441 99.324 11.365zM392.46 569.669c17.24 16.064 44.238 15.111 60.302-2.129s15.111-44.238-2.129-60.302c-22.83-21.273-32.227-53.311-24.506-83.546s31.33-53.843 61.565-61.565c30.235-7.721 62.273 1.676 83.546 24.506 16.064 17.24 43.062 18.193 60.302 2.129s18.193-43.062 2.129-60.302c-42.546-45.66-106.622-64.455-167.092-49.012s-107.687 62.66-123.13 123.13c-15.443 60.469 3.352 124.545 49.012 167.092zM12.497 887.163l938.667-938.667c16.662-16.662 43.677-16.662 60.34 0s16.662 43.677 0 60.34l-938.667 938.667c-16.662 16.662-43.677 16.662-60.34 0s-16.662-43.677 0-60.34z" />
            <glyph unicode="&#xe960;" glyph-name="eye" d="M4.504 428.919c-6.006 12.012-6.006 26.15 0 38.162 5.998 11.995 17.254 32.007 33.654 57.4 27.143 42.028 59.17 84.030 96.048 123.367 107.343 114.499 233.589 184.152 377.794 184.152s270.451-69.653 377.794-184.152c36.878-39.337 68.905-81.339 96.048-123.367 16.4-25.393 27.656-45.405 33.654-57.4 6.006-12.012 6.006-26.15 0-38.162-5.998-11.995-17.254-32.007-33.654-57.4-27.143-42.028-59.17-84.030-96.048-123.367-107.343-114.499-233.589-184.152-377.794-184.152s-270.451 69.653-377.794 184.152c-36.878 39.337-68.905 81.339-96.048 123.367-16.4 25.393-27.656 45.405-33.654 57.4zM109.842 417.814c24.524-37.972 53.497-75.97 86.619-111.3 92.657-98.834 198.411-157.181 315.54-157.181s222.882 58.347 315.54 157.181c33.122 35.33 62.095 73.328 86.619 111.3 6.961 10.778 13.134 20.9 18.505 30.186-5.371 9.286-11.544 19.408-18.505 30.186-24.524 37.972-53.497 75.97-86.619 111.3-92.657 98.834-198.411 157.181-315.54 157.181s-222.882-58.347-315.54-157.181c-33.122-35.33-62.095-73.328-86.619-111.3-6.961-10.778-13.134-20.9-18.505-30.186 5.371-9.286 11.544-19.408 18.505-30.186zM512 277.333c94.257 0 170.667 76.41 170.667 170.667s-76.41 170.667-170.667 170.667c-94.257 0-170.667-76.41-170.667-170.667s76.41-170.667 170.667-170.667zM512 362.667c-47.128 0-85.333 38.205-85.333 85.333s38.205 85.333 85.333 85.333c47.128 0 85.333-38.205 85.333-85.333s-38.205-85.333-85.333-85.333z" />
            <glyph unicode="&#xe961;" glyph-name="facebook" d="M349.091 587.636h-93.091c-25.706 0-46.545-20.839-46.545-46.545v-186.182c0-25.706 20.839-46.545 46.545-46.545h93.091v-325.818c0-25.706 20.839-46.545 46.545-46.545h186.182c25.706 0 46.545 20.839 46.545 46.545v325.818h93.091c21.358 0 39.976 14.536 45.156 35.257l46.545 186.182c7.344 29.377-14.875 57.834-45.156 57.834h-139.636v93.091h139.636c25.706 0 46.545 20.839 46.545 46.545v186.182c0 25.706-20.839 46.545-46.545 46.545h-139.636c-154.238 0-279.273-125.035-279.273-279.273v-93.091zM721.455 866.909v-93.091h-93.091c-51.413 0-93.091-41.678-93.091-93.091v-139.636c0-25.706 20.839-46.545 46.545-46.545h126.567l-23.273-93.091h-103.295c-25.706 0-46.545-20.839-46.545-46.545v-325.818h-93.091v325.818c0 25.706-20.839 46.545-46.545 46.545h-93.091v93.091h93.091c25.706 0 46.545 20.839 46.545 46.545v139.636c0 102.825 83.356 186.182 186.182 186.182h93.091z" />
            <glyph unicode="&#xe962;" glyph-name="fast-forward" d="M587.122 85.441l418.909 325.818c23.959 18.635 23.959 54.847 0 73.482l-418.909 325.818c-30.574 23.78-75.122 1.992-75.122-36.741v-651.636c0-38.733 44.548-60.52 75.122-36.741zM605.091 217.35v461.299l296.549-230.65-296.549-230.65zM75.122 85.441l418.909 325.818c23.959 18.635 23.959 54.847 0 73.482l-418.909 325.818c-30.574 23.78-75.122 1.992-75.122-36.741v-651.636c0-38.733 44.548-60.52 75.122-36.741zM93.091 217.35v461.299l296.549-230.65-296.549-230.65z" />
            <glyph unicode="&#xe963;" glyph-name="feather" d="M928.447 403.916c127.301 127.301 127.301 333.696 0 460.996s-333.696 127.301-460.996 0l-314.182-314.182c-8.729-8.729-13.633-20.568-13.633-32.913v-395.636c0-25.706 20.839-46.545 46.545-46.545h395.636c12.369 0 24.228 4.923 32.961 13.682l313.668 314.598zM562.498 168.727h-329.771v329.811l300.549 300.549c90.946 90.946 238.399 90.946 329.346 0s90.946-238.399 0-329.346l-300.124-301.014zM665.269 667.094l-651.636-651.636c-18.177-18.177-18.177-47.648 0-65.825s47.648-18.177 65.825 0l651.636 651.636c18.177 18.177 18.177 47.648 0 65.825s-47.648 18.177-65.825 0zM768 354.909h-395.636c-25.706 0-46.545-20.839-46.545-46.545s20.839-46.545 46.545-46.545h395.636c25.706 0 46.545 20.839 46.545 46.545s-20.839 46.545-46.545 46.545z" />
            <glyph unicode="&#xe964;" glyph-name="figma" d="M155.826 759.652c0 110.649 89.699 200.348 200.348 200.348h155.826c24.589 0 44.522-19.933 44.522-44.522v-311.652c0-24.589-19.933-44.522-44.522-44.522h-155.826c-110.649 0-200.348 89.699-200.348 200.348zM467.478 870.957h-111.304c-61.472 0-111.304-49.833-111.304-111.304s49.833-111.304 111.304-111.304h111.304v222.609zM467.478 915.478c0 24.589 19.933 44.522 44.522 44.522h155.826c71.577 0 137.718-38.186 173.506-100.174s35.789-138.36 0-200.348c-35.789-61.988-101.929-100.174-173.506-100.174h-155.826c-24.589 0-44.522 19.933-44.522 44.522v311.652zM556.522 870.957v-222.609h111.304c39.765 0 76.51 21.214 96.392 55.652s19.883 76.867 0 111.304c-19.883 34.438-56.627 55.652-96.392 55.652h-111.304zM467.478 448c0 71.577 38.186 137.718 100.174 173.506s138.36 35.789 200.348 0c61.988-35.789 100.174-101.929 100.174-173.506s-38.186-137.718-100.174-173.506c-61.988-35.789-138.36-35.789-200.348 0s-100.174 101.929-100.174 173.506zM556.522 448c0-39.765 21.214-76.51 55.652-96.392s76.867-19.883 111.304 0c34.438 19.883 55.652 56.627 55.652 96.392s-21.214 76.51-55.652 96.392c-34.438 19.883-76.867 19.883-111.304 0s-55.652-56.627-55.652-96.392zM155.826 136.348c0 110.649 89.699 200.348 200.348 200.348h155.826c24.589 0 44.522-19.933 44.522-44.522v-155.826c0-110.649-89.699-200.348-200.348-200.348s-200.348 89.699-200.348 200.348zM356.174 247.652c-61.472 0-111.304-49.833-111.304-111.304s49.833-111.304 111.304-111.304c61.472 0 111.304 49.833 111.304 111.304v111.304h-111.304zM155.826 448c0 110.649 89.699 200.348 200.348 200.348h155.826c24.589 0 44.522-19.933 44.522-44.522v-311.652c0-24.589-19.933-44.522-44.522-44.522h-155.826c-110.649 0-200.348 89.699-200.348 200.348zM467.478 559.304h-111.304c-61.472 0-111.304-49.833-111.304-111.304s49.833-111.304 111.304-111.304h111.304v222.609z" />
            <glyph unicode="&#xe965;" glyph-name="file-minus" d="M605.091 960h-372.364c-77.119 0-139.636-62.517-139.636-139.636v-744.727c0-77.119 62.517-139.636 139.636-139.636h558.545c77.119 0 139.636 62.517 139.636 139.636v558.545c0 12.345-4.904 24.184-13.633 32.913l-279.273 279.273c-8.729 8.729-20.568 13.633-32.913 13.633zM585.811 866.909l252.007-252.007v-539.266c0-25.706-20.839-46.545-46.545-46.545h-558.545c-25.706 0-46.545 20.839-46.545 46.545v744.727c0 25.706 20.839 46.545 46.545 46.545h353.084zM651.636 680.727v232.727c0 25.706-20.839 46.545-46.545 46.545s-46.545-20.839-46.545-46.545v-279.273c0-25.706 20.839-46.545 46.545-46.545h279.273c25.706 0 46.545 20.839 46.545 46.545s-20.839 46.545-46.545 46.545h-232.727zM372.364 261.818h279.273c25.706 0 46.545 20.839 46.545 46.545s-20.839 46.545-46.545 46.545h-279.273c-25.706 0-46.545-20.839-46.545-46.545s20.839-46.545 46.545-46.545z" />
            <glyph unicode="&#xe966;" glyph-name="file-plus" d="M605.091 960h-372.364c-77.119 0-139.636-62.517-139.636-139.636v-744.727c0-77.119 62.517-139.636 139.636-139.636h558.545c77.119 0 139.636 62.517 139.636 139.636v558.545c0 12.345-4.904 24.184-13.633 32.913l-279.273 279.273c-8.729 8.729-20.568 13.633-32.913 13.633zM585.811 866.909l252.007-252.007v-539.266c0-25.706-20.839-46.545-46.545-46.545h-558.545c-25.706 0-46.545 20.839-46.545 46.545v744.727c0 25.706 20.839 46.545 46.545 46.545h353.084zM651.636 680.727v232.727c0 25.706-20.839 46.545-46.545 46.545s-46.545-20.839-46.545-46.545v-279.273c0-25.706 20.839-46.545 46.545-46.545h279.273c25.706 0 46.545 20.839 46.545 46.545s-20.839 46.545-46.545 46.545h-232.727zM558.545 168.727v279.273c0 25.706-20.839 46.545-46.545 46.545s-46.545-20.839-46.545-46.545v-279.273c0-25.706 20.839-46.545 46.545-46.545s46.545 20.839 46.545 46.545zM372.364 261.818h279.273c25.706 0 46.545 20.839 46.545 46.545s-20.839 46.545-46.545 46.545h-279.273c-25.706 0-46.545-20.839-46.545-46.545s20.839-46.545 46.545-46.545z" />
            <glyph unicode="&#xe967;" glyph-name="file-text" d="M605.091 960h-372.364c-77.119 0-139.636-62.517-139.636-139.636v-744.727c0-77.119 62.517-139.636 139.636-139.636h558.545c77.119 0 139.636 62.517 139.636 139.636v558.545c0 12.345-4.904 24.184-13.633 32.913l-279.273 279.273c-8.729 8.729-20.568 13.633-32.913 13.633zM585.811 866.909l252.007-252.007v-539.266c0-25.706-20.839-46.545-46.545-46.545h-558.545c-25.706 0-46.545 20.839-46.545 46.545v744.727c0 25.706 20.839 46.545 46.545 46.545h353.084zM651.636 680.727v232.727c0 25.706-20.839 46.545-46.545 46.545s-46.545-20.839-46.545-46.545v-279.273c0-25.706 20.839-46.545 46.545-46.545h279.273c25.706 0 46.545 20.839 46.545 46.545s-20.839 46.545-46.545 46.545h-232.727zM698.182 448h-372.364c-25.706 0-46.545-20.839-46.545-46.545s20.839-46.545 46.545-46.545h372.364c25.706 0 46.545 20.839 46.545 46.545s-20.839 46.545-46.545 46.545zM698.182 261.818h-372.364c-25.706 0-46.545-20.839-46.545-46.545s20.839-46.545 46.545-46.545h372.364c25.706 0 46.545 20.839 46.545 46.545s-20.839 46.545-46.545 46.545zM418.909 634.182h-93.091c-25.706 0-46.545-20.839-46.545-46.545s20.839-46.545 46.545-46.545h93.091c25.706 0 46.545 20.839 46.545 46.545s-20.839 46.545-46.545 46.545z" />
            <glyph unicode="&#xe968;" glyph-name="file" d="M558.545 960h-325.818c-77.119 0-139.636-62.517-139.636-139.636v-744.727c0-77.119 62.517-139.636 139.636-139.636h558.545c77.119 0 139.636 62.517 139.636 139.636v512c0 12.345-4.904 24.184-13.633 32.913l-325.818 325.818c-8.729 8.729-20.568 13.633-32.913 13.633zM539.266 866.909l298.552-298.552v-492.72c0-25.706-20.839-46.545-46.545-46.545h-558.545c-25.706 0-46.545 20.839-46.545 46.545v744.727c0 25.706 20.839 46.545 46.545 46.545h306.538zM605.091 634.182v279.273c0 25.706-20.839 46.545-46.545 46.545s-46.545-20.839-46.545-46.545v-325.818c0-25.706 20.839-46.545 46.545-46.545h325.818c25.706 0 46.545 20.839 46.545 46.545s-20.839 46.545-46.545 46.545h-279.273z" />
            <glyph unicode="&#xe969;" glyph-name="film" d="M148.015 960h727.971c81.746 0 148.015-66.268 148.015-148.015v-727.971c0-81.746-66.268-148.015-148.015-148.015h-727.971c-81.746 0-148.015 66.268-148.015 148.015v727.971c0 81.746 66.268 148.015 148.015 148.015zM148.015 866.909c-30.333 0-54.924-24.59-54.924-54.924v-727.971c0-30.333 24.59-54.924 54.924-54.924h727.971c30.333 0 54.924 24.59 54.924 54.924v727.971c0 30.333-24.59 54.924-54.924 54.924h-727.971zM232.727 913.455v-930.909c0-25.706 20.839-46.545 46.545-46.545s46.545 20.839 46.545 46.545v930.909c0 25.706-20.839 46.545-46.545 46.545s-46.545-20.839-46.545-46.545zM698.182 913.455v-930.909c0-25.706 20.839-46.545 46.545-46.545s46.545 20.839 46.545 46.545v930.909c0 25.706-20.839 46.545-46.545 46.545s-46.545-20.839-46.545-46.545zM46.545 401.455h930.909c25.706 0 46.545 20.839 46.545 46.545s-20.839 46.545-46.545 46.545h-930.909c-25.706 0-46.545-20.839-46.545-46.545s20.839-46.545 46.545-46.545zM46.545 634.182h232.727c25.706 0 46.545 20.839 46.545 46.545s-20.839 46.545-46.545 46.545h-232.727c-25.706 0-46.545-20.839-46.545-46.545s20.839-46.545 46.545-46.545zM46.545 168.727h232.727c25.706 0 46.545 20.839 46.545 46.545s-20.839 46.545-46.545 46.545h-232.727c-25.706 0-46.545-20.839-46.545-46.545s20.839-46.545 46.545-46.545zM744.727 168.727h232.727c25.706 0 46.545 20.839 46.545 46.545s-20.839 46.545-46.545 46.545h-232.727c-25.706 0-46.545-20.839-46.545-46.545s20.839-46.545 46.545-46.545zM744.727 634.182h232.727c25.706 0 46.545 20.839 46.545 46.545s-20.839 46.545-46.545 46.545h-232.727c-25.706 0-46.545-20.839-46.545-46.545s20.839-46.545 46.545-46.545z" />
            <glyph unicode="&#xe96a;" glyph-name="filter" d="M372.364 409.547v-287.365c0-17.63 9.961-33.747 25.73-41.632l186.182-93.091c30.948-15.474 67.361 7.030 67.361 41.632v380.456l361.359 427.307c25.584 30.253 4.080 76.601-35.541 76.601h-930.909c-39.621 0-61.125-46.348-35.541-76.601l361.359-427.307zM877.135 820.364l-307.585-363.719c-7.106-8.403-11.005-19.051-11.005-30.056v-322.186l-93.091 46.545v275.641c0 11.004-3.899 21.653-11.005 30.056l-307.585 363.719h730.27z" />
            <glyph unicode="&#xe96b;" glyph-name="flag" d="M172.549 275.451c1.416 1.416 9.212 6.613 25.101 12.969 30.705 12.282 72.844 19.944 128.168 19.944 50.429 0 86.918-10.425 168.895-43.216 92.568-37.027 137.534-49.875 203.468-49.875 66.857 0 120.719 9.793 162.741 26.602 27.747 11.099 46.133 23.356 56.353 33.576 8.729 8.729 13.633 20.568 13.633 32.913v558.545c0 41.468-50.136 62.235-79.458 32.913-1.416-1.416-9.212-6.613-25.101-12.969-30.705-12.282-72.844-19.944-128.168-19.944-50.429 0-86.918 10.425-168.895 43.216-92.568 37.027-137.534 49.875-203.468 49.875-66.857 0-120.719-9.793-162.741-26.602-27.747-11.099-46.133-23.356-56.353-33.576-8.729-8.729-13.633-20.568-13.633-32.913v-558.545c0-41.468 50.136-62.235 79.458-32.913zM186.182 841.963c3.215 1.539 7.025 3.225 11.468 5.003 30.705 12.282 72.844 19.944 128.168 19.944 50.429 0 86.918-10.425 168.895-43.216 92.568-37.027 137.534-49.875 203.468-49.875 55.182 0 101.511 6.671 139.636 18.452v-458.961c-3.215-1.539-7.025-3.225-11.468-5.003-30.705-12.282-72.844-19.944-128.168-19.944-50.429 0-86.918 10.425-168.895 43.216-92.568 37.027-137.534 49.875-203.468 49.875-55.182 0-101.511-6.671-139.636-18.452v458.961zM186.182-17.455v325.818c0 25.706-20.839 46.545-46.545 46.545s-46.545-20.839-46.545-46.545v-325.818c0-25.706 20.839-46.545 46.545-46.545s46.545 20.839 46.545 46.545z" />
            <glyph unicode="&#xe96c;" glyph-name="folder-minus" d="M490.365 773.818h393.999c77.119 0 139.636-62.517 139.636-139.636v-512c0-77.119-62.517-139.636-139.636-139.636h-744.727c-77.119 0-139.636 62.517-139.636 139.636v651.636c0 77.119 62.517 139.636 139.636 139.636h232.727c15.563 0 30.096-7.778 38.728-20.727l79.273-118.91zM347.453 820.364h-207.817c-25.706 0-46.545-20.839-46.545-46.545v-651.636c0-25.706 20.839-46.545 46.545-46.545h744.727c25.706 0 46.545 20.839 46.545 46.545v512c0 25.706-20.839 46.545-46.545 46.545h-418.909c-15.563 0-30.096 7.778-38.728 20.727l-79.273 118.91zM372.364 308.364h279.273c25.706 0 46.545 20.839 46.545 46.545s-20.839 46.545-46.545 46.545h-279.273c-25.706 0-46.545-20.839-46.545-46.545s20.839-46.545 46.545-46.545z" />
            <glyph unicode="&#xe96d;" glyph-name="folder-plus" d="M490.365 773.818h393.999c77.119 0 139.636-62.517 139.636-139.636v-512c0-77.119-62.517-139.636-139.636-139.636h-744.727c-77.119 0-139.636 62.517-139.636 139.636v651.636c0 77.119 62.517 139.636 139.636 139.636h232.727c15.563 0 30.096-7.778 38.728-20.727l79.273-118.91zM347.453 820.364h-207.817c-25.706 0-46.545-20.839-46.545-46.545v-651.636c0-25.706 20.839-46.545 46.545-46.545h744.727c25.706 0 46.545 20.839 46.545 46.545v512c0 25.706-20.839 46.545-46.545 46.545h-418.909c-15.563 0-30.096 7.778-38.728 20.727l-79.273 118.91zM465.455 494.545v-279.273c0-25.706 20.839-46.545 46.545-46.545s46.545 20.839 46.545 46.545v279.273c0 25.706-20.839 46.545-46.545 46.545s-46.545-20.839-46.545-46.545zM372.364 308.364h279.273c25.706 0 46.545 20.839 46.545 46.545s-20.839 46.545-46.545 46.545h-279.273c-25.706 0-46.545-20.839-46.545-46.545s20.839-46.545 46.545-46.545z" />
            <glyph unicode="&#xe96e;" glyph-name="folder" d="M490.365 773.818h393.999c77.119 0 139.636-62.517 139.636-139.636v-512c0-77.119-62.517-139.636-139.636-139.636h-744.727c-77.119 0-139.636 62.517-139.636 139.636v651.636c0 77.119 62.517 139.636 139.636 139.636h232.727c15.563 0 30.096-7.778 38.728-20.727l79.273-118.91zM347.453 820.364h-207.817c-25.706 0-46.545-20.839-46.545-46.545v-651.636c0-25.706 20.839-46.545 46.545-46.545h744.727c25.706 0 46.545 20.839 46.545 46.545v512c0 25.706-20.839 46.545-46.545 46.545h-418.909c-15.563 0-30.096 7.778-38.728 20.727l-79.273 118.91z" />
            <glyph unicode="&#xe96f;" glyph-name="framer" d="M467.478 247.652h-159.61l159.61-159.645v159.645zM155.915 290.037l-0.089 2.137v311.652c0 22.832 17.187 41.65 39.33 44.222l5.192 0.3h204.167l-235.649 235.649c-26.828 26.828-9.82 71.871 26.423 75.737l5.059 0.266h623.304c22.832 0 41.65-17.187 44.222-39.33l0.3-5.192v-311.652c0-22.832-17.187-41.65-39.33-44.222l-5.192-0.3h-204.167l235.649-235.649c26.828-26.828 9.82-71.871-26.423-75.737l-5.059-0.266h-267.13v-267.13c0-37.94-43.877-57.764-72.238-34.871l-3.766 3.389-311.652 311.652c-0.479 0.479-0.944 0.966-1.396 1.46-0.756 0.829-1.479 1.682-2.17 2.563-0.245 0.308-0.491 0.63-0.732 0.955-0.491 0.666-0.964 1.343-1.419 2.032-0.133 0.202-0.263 0.403-0.391 0.604l-0.428 0.687-0.953 1.629c-0.484 0.88-0.948 1.788-1.381 2.714l-0.999 2.305c-0.352 0.88-0.672 1.76-0.965 2.653-0.215 0.663-0.421 1.348-0.61 2.037-0.268 0.96-0.499 1.925-0.698 2.903l-0.42 2.419-0.123 0.877c-0.234 1.848-0.354 3.732-0.354 5.644l0.267-4.586-0.134 1.291-0.056 0.657 0.011 0.501zM716.167 336.696l-222.609 222.609h-248.689v-222.609h471.298zM779.13 870.957h-471.298l222.609-222.609h248.689v222.609z" />
            <glyph unicode="&#xe970;" glyph-name="frown" d="M512-64c282.77 0 512 229.23 512 512s-229.23 512-512 512c-282.77 0-512-229.23-512-512s229.23-512 512-512zM512 29.091c-231.357 0-418.909 187.552-418.909 418.909s187.552 418.909 418.909 418.909c231.357 0 418.909-187.552 418.909-418.909s-187.552-418.909-418.909-418.909zM735.418 289.745c-11.305 15.073-31.14 35.771-59.314 56.261-47.42 34.487-102.442 55.448-164.104 55.448s-116.684-20.961-164.104-55.448c-28.174-20.49-48.009-41.188-59.314-56.261-15.424-20.565-11.256-49.74 9.309-65.164s49.74-11.256 65.164 9.309c6.15 8.199 19.769 22.411 39.595 36.83 32.58 23.695 69.194 37.643 109.351 37.643s76.77-13.948 109.351-37.643c19.826-14.419 33.445-28.63 39.595-36.83 15.424-20.565 44.599-24.733 65.164-9.309s24.733 44.599 9.309 65.164zM372.364 541.091h0.465c25.706 0 46.545 20.839 46.545 46.545s-20.839 46.545-46.545 46.545h-0.465c-25.706 0-46.545-20.839-46.545-46.545s20.839-46.545 46.545-46.545zM651.636 541.091h0.465c25.706 0 46.545 20.839 46.545 46.545s-20.839 46.545-46.545 46.545h-0.465c-25.706 0-46.545-20.839-46.545-46.545s20.839-46.545 46.545-46.545z" />
            <glyph unicode="&#xe971;" glyph-name="gift" d="M837.818 29.091h-651.636v418.909c0 25.706-20.839 46.545-46.545 46.545s-46.545-20.839-46.545-46.545v-465.455c0-25.706 20.839-46.545 46.545-46.545h744.727c25.706 0 46.545 20.839 46.545 46.545v465.455c0 25.706-20.839 46.545-46.545 46.545s-46.545-20.839-46.545-46.545v-418.909zM0 680.727c0 25.706 20.839 46.545 46.545 46.545h930.909c25.706 0 46.545-20.839 46.545-46.545v-232.727c0-25.706-20.839-46.545-46.545-46.545h-930.909c-25.706 0-46.545 20.839-46.545 46.545v232.727zM93.091 634.182v-139.636h837.818v139.636h-837.818zM558.545-17.455v698.182c0 25.706-20.839 46.545-46.545 46.545s-46.545-20.839-46.545-46.545v-698.182c0-25.706 20.839-46.545 46.545-46.545s46.545 20.839 46.545 46.545zM557.642 689.856c5.76-28.802-16.269-55.674-45.642-55.674h-209.455c-89.972 0-162.909 72.937-162.909 162.909s72.937 162.909 162.909 162.909c91.269 0 159.252-54.386 206.602-140.478 15.602-28.367 27.912-58.392 37.408-88.379 5.731-18.097 9.317-32.443 11.086-41.287zM427.58 774.66c-32.649 59.363-73.758 92.249-125.034 92.249-38.56 0-69.818-31.259-69.818-69.818s31.259-69.818 69.818-69.818h146.816c-6.222 16.294-13.476 32.285-21.782 47.387zM512 634.182h209.455c89.972 0 162.909 72.937 162.909 162.909s-72.937 162.909-162.909 162.909c-91.269 0-159.252-54.386-206.602-140.478-15.602-28.367-27.912-58.392-37.408-88.379-5.731-18.097-9.317-32.443-11.086-41.287-5.76-28.802 16.269-55.674 45.642-55.674zM596.42 774.66c32.649 59.363 73.758 92.249 125.034 92.249 38.56 0 69.818-31.259 69.818-69.818s-31.259-69.818-69.818-69.818h-146.816c6.222 16.294 13.476 32.285 21.782 47.387z" />
            <glyph unicode="&#xe972;" glyph-name="git-branch" d="M153.6 908.8v-614.4c0-28.277 22.923-51.2 51.2-51.2s51.2 22.923 51.2 51.2v614.4c0 28.277-22.923 51.2-51.2 51.2s-51.2-22.923-51.2-51.2zM819.2 550.4c113.108 0 204.8 91.692 204.8 204.8s-91.692 204.8-204.8 204.8c-113.108 0-204.8-91.692-204.8-204.8s91.692-204.8 204.8-204.8zM819.2 652.8c-56.554 0-102.4 45.846-102.4 102.4s45.846 102.4 102.4 102.4c56.554 0 102.4-45.846 102.4-102.4s-45.846-102.4-102.4-102.4zM204.8-64c113.108 0 204.8 91.692 204.8 204.8s-91.692 204.8-204.8 204.8c-113.108 0-204.8-91.692-204.8-204.8s91.692-204.8 204.8-204.8zM204.8 38.4c-56.554 0-102.4 45.846-102.4 102.4s45.846 102.4 102.4 102.4c56.554 0 102.4-45.846 102.4-102.4s-45.846-102.4-102.4-102.4zM768 601.6c0-226.216-183.384-409.6-409.6-409.6-28.277 0-51.2-22.923-51.2-51.2s22.923-51.2 51.2-51.2c282.77 0 512 229.23 512 512 0 28.277-22.923 51.2-51.2 51.2s-51.2-22.923-51.2-51.2z" />
            <glyph unicode="&#xe973;" glyph-name="git-commit" d="M512 234.667c117.821 0 213.333 95.513 213.333 213.333s-95.513 213.333-213.333 213.333c-117.821 0-213.333-95.513-213.333-213.333s95.513-213.333 213.333-213.333zM512 320c-70.692 0-128 57.308-128 128s57.308 128 128 128c70.692 0 128-57.308 128-128s-57.308-128-128-128zM44.8 405.333h253.867c23.564 0 42.667 19.103 42.667 42.667s-19.103 42.667-42.667 42.667h-253.867c-23.564 0-42.667-19.103-42.667-42.667s19.103-42.667 42.667-42.667zM725.76 405.333h253.867c23.564 0 42.667 19.103 42.667 42.667s-19.103 42.667-42.667 42.667h-253.867c-23.564 0-42.667-19.103-42.667-42.667s19.103-42.667 42.667-42.667z" />
            <glyph unicode="&#xe974;" glyph-name="git-merge" d="M819.2-64c113.108 0 204.8 91.692 204.8 204.8s-91.692 204.8-204.8 204.8c-113.108 0-204.8-91.692-204.8-204.8s91.692-204.8 204.8-204.8zM819.2 38.4c-56.554 0-102.4 45.846-102.4 102.4s45.846 102.4 102.4 102.4c56.554 0 102.4-45.846 102.4-102.4s-45.846-102.4-102.4-102.4zM204.8 550.4c113.108 0 204.8 91.692 204.8 204.8s-91.692 204.8-204.8 204.8c-113.108 0-204.8-91.692-204.8-204.8s91.692-204.8 204.8-204.8zM204.8 652.8c-56.554 0-102.4 45.846-102.4 102.4s45.846 102.4 102.4 102.4c56.554 0 102.4-45.846 102.4-102.4s-45.846-102.4-102.4-102.4zM665.6 89.6c28.277 0 51.2 22.923 51.2 51.2s-22.923 51.2-51.2 51.2c-226.216 0-409.6 183.384-409.6 409.6 0 68.267-102.4 68.267-102.4 0v-614.4c0-28.277 22.923-51.2 51.2-51.2s51.2 22.923 51.2 51.2v307.15c93.412-124.331 242.115-204.75 409.6-204.75z" />
            <glyph unicode="&#xe975;" glyph-name="git-pull-request" d="M819.2-64c113.108 0 204.8 91.692 204.8 204.8s-91.692 204.8-204.8 204.8c-113.108 0-204.8-91.692-204.8-204.8s91.692-204.8 204.8-204.8zM819.2 38.4c-56.554 0-102.4 45.846-102.4 102.4s45.846 102.4 102.4 102.4c56.554 0 102.4-45.846 102.4-102.4s-45.846-102.4-102.4-102.4zM204.8 550.4c113.108 0 204.8 91.692 204.8 204.8s-91.692 204.8-204.8 204.8c-113.108 0-204.8-91.692-204.8-204.8s91.692-204.8 204.8-204.8zM204.8 652.8c-56.554 0-102.4 45.846-102.4 102.4s45.846 102.4 102.4 102.4c56.554 0 102.4-45.846 102.4-102.4s-45.846-102.4-102.4-102.4zM563.2 704h153.6c28.277 0 51.2-22.923 51.2-51.2v-358.4c0-28.277 22.923-51.2 51.2-51.2s51.2 22.923 51.2 51.2v358.4c0 84.831-68.769 153.6-153.6 153.6h-153.6c-28.277 0-51.2-22.923-51.2-51.2s22.923-51.2 51.2-51.2zM153.6 601.6v-614.4c0-28.277 22.923-51.2 51.2-51.2s51.2 22.923 51.2 51.2v614.4c0 28.277-22.923 51.2-51.2 51.2s-51.2-22.923-51.2-51.2z" />
            <glyph unicode="&#xe976;" glyph-name="github" d="M682.116 897.543c82.203 52.146 143.543 68.666 185.387 62.592 3.665-0.532 6.775-1.216 9.325-1.973 12.69-3.764 23.047-12.979 28.261-25.144 23.797-55.521 28.207-117.155 12.998-175.085 39.598-50.321 61.38-112.701 61.392-177.258 0-206.676-92.167-308.017-257.808-344.74 10.64-26.705 15.2-55.291 12.938-83.114v-172.299c0-24.589-19.933-44.522-44.522-44.522s-44.522 19.933-44.522 44.522l0.137 175.791c2.376 30.202-8.345 59.969-29.432 81.721-25.757 26.569-9.742 71.138 27.034 75.237 167.795 18.703 247.13 85.413 247.13 267.396-0.009 50.734-19.524 99.521-54.506 136.266-11.748 12.34-15.423 30.303-9.466 46.265 12.798 34.293 14.832 71.423 6.219 106.531-3.126-0.706-6.554-1.584-10.292-2.66-28.689-8.259-64.442-25.594-107.512-54.465-10.706-7.176-23.996-9.361-36.436-5.99-94.417 25.589-193.943 25.589-288.36 0-12.44-3.371-25.73-1.187-36.436 5.99-43.070 28.871-78.823 46.206-107.512 54.465-3.738 1.076-7.167 1.954-10.292 2.66-8.613-35.109-6.579-72.239 6.219-106.531 5.957-15.963 2.282-33.926-9.467-46.266-35.242-37.017-54.779-86.246-54.509-137.593 0-180.277 78.741-246.486 247.689-267.47 36.447-4.527 52.047-48.751 26.506-75.144-20.833-21.528-31.534-50.897-29.322-83.905v-172.299c0-24.589-19.933-44.522-44.522-44.522s-44.522 19.933-44.522 44.522l0.002 77.391c-98.704-16.097-161.361 16.112-219.955 88.663-3.639 4.506-16.92 21.365-20.001 25.173-17.408 21.512-27.717 30.147-37.974 32.711-23.855 5.964-38.358 30.136-32.394 53.99s30.136 38.358 53.991 32.394c34.059-8.515 56.966-27.703 85.596-63.082 3.563-4.403 16.88-21.308 20.056-25.241 42.258-52.323 77.358-70.328 150.789-54.124v1.3c-2.072 29.462 2.604 58.652 13.276 85.506-166.552 38.22-258.258 138.6-258.258 343.902-0.342 65.096 21.464 128.087 61.395 178.828-15.21 57.93-10.799 119.564 12.998 175.084 5.214 12.166 15.571 21.381 28.261 25.144 2.55 0.756 5.66 1.441 9.325 1.973 41.843 6.074 103.183-10.446 185.387-62.592 97.217 23.076 198.494 23.076 295.71 0z" />
            </font>
</defs>
</svg>
