<?xml version="1.0" standalone="no"?>
<!DOCTYPE svg PUBLIC "-//W3C//DTD SVG 1.1//EN" "http://www.w3.org/Graphics/SVG/1.1/DTD/svg11.dtd" >
<svg xmlns="http://www.w3.org/2000/svg">
<metadata>Generated by IcoMoon</metadata>
<defs>
<font id="vcv-jam" horiz-adv-x="1024">
<font-face units-per-em="1024" ascent="960" descent="-64" />
<missing-glyph horiz-adv-x="1024" />
<glyph unicode="&#x20;" horiz-adv-x="512" d="" />
<glyph unicode="&#xe900;" glyph-name="px" d="M554.283 119.808c157.013 0 284.715 126.805 284.715 282.667 0 155.904-127.744 282.709-284.715 282.709-0.081 0-0.177 0-0.273 0-80.115 0-152.525-32.991-204.385-86.129l-0.056-0.058v227.84h391.595c0.013 0 0.028 0 0.043 0 13.222 0 23.948 10.682 24.021 23.886v0.007c0 13.227-10.752 23.936-24.064 23.936h-415.701c-0.013 0-0.028 0-0.043 0-13.222 0-23.948-10.682-24.021-23.886v-318.002l-0.299-5.803c-0.008-0.232-0.013-0.505-0.013-0.779 0-13.337 10.812-24.149 24.149-24.149 9.017 0 16.88 4.942 21.027 12.265l0.063 0.12c41.073 73.787 118.602 122.88 207.597 122.88 0.127 0 0.253 0 0.38 0h-0.020c130.432 0 236.501-105.301 236.501-234.795s-106.069-234.837-236.501-234.837c-44.807 0.052-86.69 12.531-122.4 34.173l1.056-0.594v201.216c0 66.475 54.443 120.533 121.344 120.533 66.944 0 121.344-54.059 121.344-120.533 0-66.432-54.4-120.491-121.344-120.491-16.213 0-31.915 3.115-46.72 9.259-2.734 1.165-5.914 1.843-9.252 1.843-9.934 0-18.468-5.999-22.176-14.572l-0.060-0.156c-1.163-2.715-1.839-5.875-1.839-9.193 0-9.904 6.025-18.4 14.61-22.023l0.157-0.059c20.736-8.576 42.667-12.928 65.28-12.928 93.483 0 169.557 75.52 169.557 168.32 0 92.843-76.075 168.363-169.557 168.363-93.44 0-169.515-75.52-169.515-168.363v-163.499c-26.942 27.336-47.192 61.338-58.051 99.306l-0.402 1.643c-2.887 10.312-12.202 17.749-23.253 17.749-13.314 0-24.107-10.793-24.107-24.107 0-2.262 0.312-4.451 0.894-6.527l-0.041 0.17c33.92-122.112 146.773-207.403 274.475-207.403zM409.515 753.792c-8.489-3.79-14.299-12.158-14.299-21.882 0-3.508 0.756-6.84 2.114-9.841l-0.061 0.15c5.419-12.075 19.627-17.493 31.787-12.16 75.52 33.28 223.915 68.096 368.939-73.173 4.347-4.274 10.314-6.912 16.896-6.912 6.752 0 12.856 2.776 17.233 7.249l0.004 0.004c4.245 4.297 6.866 10.206 6.866 16.727 0 6.711-2.777 12.774-7.244 17.101l-0.006 0.006c-171.52 167.040-352.427 113.493-422.229 82.731zM840.32 186.453c-4.212 3.649-9.746 5.872-15.799 5.872-7.246 0-13.749-3.186-18.183-8.234l-0.023-0.027c-61.691-70.096-151.604-114.091-251.792-114.091-0.084 0-0.169 0-0.253 0h0.013c-169.813 0-312.405 126.165-331.648 293.461-1.482 11.998-11.613 21.195-23.892 21.195-0.978 0-1.942-0.058-2.889-0.172l0.114 0.011c-12.063-1.37-21.349-11.517-21.349-23.834 0-0.923 0.052-1.833 0.154-2.729l-0.010 0.11c22.016-191.488 185.173-335.915 379.52-335.915 0.091 0 0.2 0 0.308 0 114.644 0 217.53 50.346 287.753 130.136l0.366 0.425c3.666 4.167 5.903 9.668 5.903 15.692 0 7.207-3.202 13.666-8.262 18.032l-0.031 0.026zM492.971 344.491c4.375-4.439 10.453-7.189 17.173-7.189 6.593 0 12.568 2.647 16.92 6.936l-0.003-0.003 24.747 24.235 24.405-24.533c4.373-4.426 10.442-7.168 17.152-7.168 6.582 0 12.549 2.638 16.899 6.915l-0.003-0.003c4.435 4.328 7.185 10.365 7.185 17.044 0 6.552-2.647 12.487-6.93 16.792l0.001-0.001-24.405 24.576 23.851 23.339c4.422 4.326 7.163 10.354 7.163 17.023 0 6.563-2.656 12.506-6.951 16.812l0.001-0.001c-4.383 4.406-10.449 7.133-17.153 7.133-6.576 0-12.539-2.624-16.9-6.881l0.005 0.005-23.851-23.381-23.509 23.68c-4.385 4.419-10.46 7.154-17.174 7.154-6.587 0-12.558-2.632-16.921-6.902l0.004 0.004c-4.422-4.326-7.163-10.354-7.163-17.023 0-6.563 2.656-12.506 6.951-16.812l-0.001 0.001 23.467-23.68-24.704-24.235c-4.435-4.328-7.185-10.365-7.185-17.044 0-6.552 2.647-12.487 6.93-16.792l-0.001 0.001z" />
<glyph unicode="&#xe901;" glyph-name="activity" d="M388.949 373.376l-47.616 375.509-47.616-375.467h-165.717c-23.552 0-42.667 18.645-42.667 41.643 0.288 23.108 19.088 41.73 42.237 41.73 0.151 0 0.302-0.001 0.453-0.002h90.26l38.4 302.336c5.717 45.739 48.384 78.165 95.104 72.533 38.827-4.693 69.376-34.56 74.197-72.533l38.357-302.336h84.224l48.768-309.163 48.725 309.12h249.941c23.552 0 42.667-18.688 42.667-41.728s-19.115-41.685-42.667-41.685h-176.725l-37.589-238.379c-6.191-36.276-34.83-64.366-70.88-69.662l-0.458-0.055c-46.592-7.040-90.155 24.192-97.365 69.717l-37.547 238.379h-86.528z" />
<glyph unicode="&#xe902;" glyph-name="airbnb" d="M874.539 308.139c43.392-97.707 18.816-199.509-61.141-253.355-33.024-22.272-67.925-33.408-103.723-33.408-36.181 0-73.216 11.349-110.208 34.005-21.845 13.397-41.216 30.72-59.947 47.445-5.973 5.333-11.947 10.667-18.005 15.829-2.732 2.418-5.135 5.104-7.199 8.046l-0.097 0.146c-5.205-4.608-10.197-9.131-15.061-13.568-18.432-16.725-35.883-32.512-54.869-45.995-70.101-49.792-139.776-58.88-207.189-27.093-64.891 31.065-108.912 96.209-108.912 171.635 0 22.591 3.949 44.26 11.195 64.354l-0.416-1.322c21.035 60.331 48.427 119.040 74.965 175.787l0.853 1.835c37.675 80.64 77.056 162.005 115.115 240.683l33.835 70.016c14.507 30.123 33.92 63.915 68.053 86.443 35.115 23.168 76.075 30.592 115.328 20.907 39.979-9.941 74.027-36.693 95.915-75.264 32.555-57.429 61.44-117.845 85.973-169.984 8.282-7.749 57.051-112.001 104.721-216.859l40.815-100.282zM623.787 705.28l-23.68 49.707c-17.579 37.077-49.792 59.392-86.187 59.733-37.248-0.171-70.4-21.845-89.173-59.477-5.632-11.307-11.435-22.528-17.237-33.707-9.643-18.731-19.627-38.059-28.757-57.6-64-137.557-123.008-265.301-180.352-390.485-16.896-36.821-17.493-75.605-1.835-112.085 14.933-34.731 41.557-60.672 74.965-73.003 13.824-5.12 28.16-7.637 42.624-7.637 20.608 0 41.429 5.12 61.099 15.36 24.96 12.971 46.805 31.488 67.968 49.365 9.216 7.808 18.432 15.616 27.861 22.912 24.704 19.115 11.093 40.917 5.803 49.408-24.405 39.040-49.664 79.445-69.291 121.259-18.944 40.448-22.955 81.195-11.861 121.045 17.621 63.232 83.285 99.413 149.461 82.347 62.123-15.957 99.883-79.915 87.808-148.736-8.277-47.232-28.16-92.928-64.427-148.267-2.347-3.499-5.12-7.168-7.936-10.88-10.24-13.525-21.803-28.885-19.243-45.397 2.731-17.493 18.176-30.080 31.787-41.173 3.029-2.475 6.059-4.949 8.789-7.339 34.347-30.336 73.344-58.496 125.909-59.221h1.109l1.067 0.128c3.328 0.427 6.656 0.811 10.027 1.152 8.107 0.853 16.597 1.707 25.131 4.139 37.492 10.915 67.41 37.19 82.995 71.376l0.333 0.816c15.787 35.413 15.189 75.349-1.621 112.384-66.005 145.493-135.68 292.096-203.136 433.877zM574.208 392.96c7.808 38.699 2.304 62.293-18.347 78.933-13.269 10.581-27.392 15.915-42.155 15.915-10.923 0-22.187-2.901-33.835-8.704-23.253-11.691-33.28-31.915-31.445-63.787 3.243-56.021 31.872-101.675 64.171-148.608 27.008 37.973 52.096 79.104 61.611 126.293z" />
<glyph unicode="&#xe903;" glyph-name="alarm-clock-f" d="M553.045 744.533c39.253 53.329 101.783 87.548 172.305 87.548 117.821 0 213.333-95.513 213.333-213.333 0-56.887-22.266-108.574-58.559-146.821l0.089 0.094c-44.751 146.967-171.347 255.186-325.433 272.313l-1.735 0.157zM143.787 471.936c-36.204 38.152-58.471 89.839-58.471 146.726 0 117.821 95.513 213.333 213.333 213.333 70.522 0 133.052-34.219 171.892-86.959l0.414-0.588c-155.821-17.283-282.417-125.503-326.453-269.747l-0.715-2.723zM512 64c-164.949 0-298.667 133.718-298.667 298.667s133.718 298.667 298.667 298.667v0c164.949 0 298.667-133.718 298.667-298.667s-133.718-298.667-298.667-298.667v0zM554.667 405.333v170.667c0 23.564-19.103 42.667-42.667 42.667s-42.667-19.103-42.667-42.667v0-213.333c0-23.564 19.103-42.667 42.667-42.667v0h128c23.564 0 42.667 19.103 42.667 42.667s-19.103 42.667-42.667 42.667v0h-85.333z" />
<glyph unicode="&#xe904;" glyph-name="alarm-clock" d="M554.667 448h85.333c23.564 0 42.667-19.103 42.667-42.667s-19.103-42.667-42.667-42.667v0h-128c-23.564 0-42.667 19.103-42.667 42.667v0 213.333c0 23.564 19.103 42.667 42.667 42.667s42.667-19.103 42.667-42.667v0-170.667zM880.213 514.645c10.018-32.624 15.787-70.124 15.787-108.972 0-212.077-171.923-384-384-384s-384 171.923-384 384c0 38.848 5.769 76.349 16.496 111.692l-0.71-2.72c-36.204 38.152-58.471 89.839-58.471 146.726 0 117.821 95.513 213.333 213.333 213.333 70.522 0 133.052-34.219 171.892-86.959l0.414-0.588c12.313 1.385 26.587 2.175 41.045 2.175s28.732-0.79 42.781-2.33l-1.735 0.154c39.253 53.329 101.783 87.548 172.305 87.548 117.821 0 213.333-95.513 213.333-213.333 0-56.887-22.266-108.574-58.559-146.821l0.089 0.094zM840.192 604.8c8.329 16.518 13.207 36.003 13.207 56.627 0 70.692-57.308 128-128 128-28.764 0-55.313-9.488-76.686-25.505l0.332 0.238c80.844-31.564 146.604-87.065 190.193-157.7l0.953-1.66zM374.912 764.16c-21.041 15.779-47.589 25.267-76.354 25.267-70.692 0-128-57.308-128-128 0-20.624 4.878-40.109 13.542-57.364l-0.335 0.737c44.542 72.295 110.303 127.796 188.528 158.456l2.618 0.904zM512 106.667c164.949 0 298.667 133.718 298.667 298.667s-133.718 298.667-298.667 298.667v0c-164.949 0-298.667-133.718-298.667-298.667s133.718-298.667 298.667-298.667v0z" />
<glyph unicode="&#xe905;" glyph-name="alert-f" d="M512 25.899c-235.648 0-426.667 191.019-426.667 426.667 0 235.605 191.019 426.667 426.667 426.667s426.667-191.061 426.667-426.667c0-235.648-191.019-426.667-426.667-426.667zM512 665.899c-23.564 0-42.667-19.103-42.667-42.667v0-213.333c0-23.564 19.103-42.667 42.667-42.667s42.667 19.103 42.667 42.667v0 213.333c0 23.564-19.103 42.667-42.667 42.667v0zM512 239.232c23.564 0 42.667 19.103 42.667 42.667s-19.103 42.667-42.667 42.667v0c-23.564 0-42.667-19.103-42.667-42.667s19.103-42.667 42.667-42.667v0z" />
<glyph unicode="&#xe906;" glyph-name="alert" d="M512 21.333c-235.648 0-426.667 191.019-426.667 426.667s191.019 426.667 426.667 426.667 426.667-191.019 426.667-426.667-191.019-426.667-426.667-426.667zM512 106.667c188.513 0 341.333 152.82 341.333 341.333s-152.82 341.333-341.333 341.333v0c-188.513 0-341.333-152.82-341.333-341.333s152.82-341.333 341.333-341.333v0zM512 661.333c23.564 0 42.667-19.103 42.667-42.667v0-213.333c0-23.564-19.103-42.667-42.667-42.667s-42.667 19.103-42.667 42.667v0 213.333c0 23.564 19.103 42.667 42.667 42.667v0zM512 234.667c-23.564 0-42.667 19.103-42.667 42.667s19.103 42.667 42.667 42.667v0c23.564 0 42.667-19.103 42.667-42.667s-19.103-42.667-42.667-42.667v0z" />
<glyph unicode="&#xe907;" glyph-name="alien-f" d="M512 6.059c-192 0-384 257.28-384 469.333 0 212.077 171.923 384 384 384s384-171.923 384-384v0c0-212.053-192-469.333-384-469.333zM427.776 269.781c22.571 8.192 60.587 83.029 36.395 149.461-24.149 66.432-102.357 98.987-123.947 91.093-21.589-7.851-60.587-83.029-36.395-149.461 24.149-66.432 101.376-99.285 123.947-91.093zM596.224 269.781c22.571-8.192 99.797 24.661 123.947 91.093 24.192 66.432-14.805 141.611-36.395 149.461-21.589 7.893-99.797-24.661-123.947-91.093-24.192-66.432 13.824-141.227 36.395-149.461z" />
<glyph unicode="&#xe908;" glyph-name="alien" d="M512 21.333c-192 0-384 257.28-384 469.333 0 212.077 171.923 384 384 384s384-171.923 384-384v0c0-212.053-192-469.333-384-469.333zM512 106.667c133.973 0 298.667 207.744 298.667 384 0 164.949-133.718 298.667-298.667 298.667s-298.667-133.718-298.667-298.667v0c0-176.256 164.693-384 298.667-384zM427.776 285.013c-22.571-8.192-99.797 24.704-123.947 91.136-24.192 66.432 14.805 141.611 36.395 149.461s99.797-24.661 123.947-91.093c24.192-66.432-13.824-141.227-36.395-149.461zM596.224 285.013c-22.571 8.235-60.587 83.072-36.395 149.504 24.149 66.432 102.357 98.987 123.947 91.093 21.589-7.851 60.587-83.029 36.395-149.461-24.149-66.432-101.376-99.328-123.947-91.093z" />
<glyph unicode="&#xe909;" glyph-name="align-center" d="M341.333 661.333h341.333c23.564 0 42.667-19.103 42.667-42.667s-19.103-42.667-42.667-42.667v0h-341.333c-23.564 0-42.667 19.103-42.667 42.667s19.103 42.667 42.667 42.667v0zM341.333 320h341.333c23.564 0 42.667-19.103 42.667-42.667s-19.103-42.667-42.667-42.667v0h-341.333c-23.564 0-42.667 19.103-42.667 42.667s19.103 42.667 42.667 42.667v0zM256 490.667h512c23.564 0 42.667-19.103 42.667-42.667s-19.103-42.667-42.667-42.667v0h-512c-23.564 0-42.667 19.103-42.667 42.667s19.103 42.667 42.667 42.667v0z" />
<glyph unicode="&#xe90a;" glyph-name="align-justify" d="M256 661.333h512c23.564 0 42.667-19.103 42.667-42.667s-19.103-42.667-42.667-42.667v0h-512c-23.564 0-42.667 19.103-42.667 42.667s19.103 42.667 42.667 42.667v0zM256 320h512c23.564 0 42.667-19.103 42.667-42.667s-19.103-42.667-42.667-42.667v0h-512c-23.564 0-42.667 19.103-42.667 42.667s19.103 42.667 42.667 42.667v0zM256 490.667h512c23.564 0 42.667-19.103 42.667-42.667s-19.103-42.667-42.667-42.667v0h-512c-23.564 0-42.667 19.103-42.667 42.667s19.103 42.667 42.667 42.667v0z" />
<glyph unicode="&#xe90b;" glyph-name="align-left" d="M256 661.333h256c23.564 0 42.667-19.103 42.667-42.667s-19.103-42.667-42.667-42.667v0h-256c-23.564 0-42.667 19.103-42.667 42.667s19.103 42.667 42.667 42.667v0zM256 320h341.333c23.564 0 42.667-19.103 42.667-42.667s-19.103-42.667-42.667-42.667v0h-341.333c-23.564 0-42.667 19.103-42.667 42.667s19.103 42.667 42.667 42.667v0zM256 490.667h512c23.564 0 42.667-19.103 42.667-42.667s-19.103-42.667-42.667-42.667v0h-512c-23.564 0-42.667 19.103-42.667 42.667s19.103 42.667 42.667 42.667v0z" />
<glyph unicode="&#xe90c;" glyph-name="align-right" d="M512 661.333h256c23.564 0 42.667-19.103 42.667-42.667s-19.103-42.667-42.667-42.667v0h-256c-23.564 0-42.667 19.103-42.667 42.667s19.103 42.667 42.667 42.667v0zM426.667 320h341.333c23.564 0 42.667-19.103 42.667-42.667s-19.103-42.667-42.667-42.667v0h-341.333c-23.564 0-42.667 19.103-42.667 42.667s19.103 42.667 42.667 42.667v0zM256 490.667h512c23.564 0 42.667-19.103 42.667-42.667s-19.103-42.667-42.667-42.667v0h-512c-23.564 0-42.667 19.103-42.667 42.667s19.103 42.667 42.667 42.667v0z" />
<glyph unicode="&#xe90d;" glyph-name="amazon" d="M590.037 608.384c-20.651-1.621-44.501-3.2-68.309-6.4-36.523-4.736-73.045-11.136-103.253-25.429-58.709-23.893-98.475-74.752-98.475-149.589 0-93.867 60.373-141.525 136.619-141.525 25.429 0 46.080 3.115 65.109 7.893 30.208 9.557 55.595 27.051 85.76 58.88 17.493-23.893 22.187-35.029 52.437-60.459 7.936-3.2 15.872-3.2 22.187 1.579 27.438 22.957 50.212 42.716 72.663 62.827l-2.69-2.369c7.893 6.4 6.272 15.915 1.536 23.893-17.493 22.272-34.944 41.387-34.944 84.267v143.232c0 60.501 4.693 116.139-39.68 157.44-36.565 33.536-93.781 46.251-138.197 46.251h-19.072c-81.024-4.821-166.784-39.808-185.856-140.032-3.157-12.715 6.4-17.493 12.757-19.157l88.917-11.093c9.515 1.621 14.251 9.557 15.829 17.493 7.979 34.987 36.565 52.48 68.352 55.68h6.4c18.987 0 39.637-7.979 50.773-23.808 12.672-19.115 11.093-44.587 11.093-66.859v-12.715zM590.037 516.053c0-36.608 1.536-65.237-17.493-96.981-11.093-22.272-30.165-36.608-50.816-41.387-3.157 0-7.893-1.621-12.715-1.621-34.901 0-55.595 27.008-55.595 66.816 0 50.901 30.208 74.795 68.267 85.931 20.693 4.779 44.544 6.4 68.352 6.4v-19.2zM882.603 138.027c38.827 32.853 55.211 92.459 56.064 123.605v5.205c0.016 0.356 0.025 0.773 0.025 1.193 0 4.944-1.274 9.591-3.512 13.629l0.073-0.144c-7.765 9.472-64.768 18.176-113.92 3.456-14.149-4.477-26.46-10.643-37.557-18.423l0.437 0.29c-8.619-6.101-6.912-13.781 1.707-12.971 9.515 1.749 21.589 2.56 35.413 4.352 30.208 2.56 65.579 3.413 74.24-7.808 11.989-14.635-13.824-78.635-25.088-106.325-3.413-8.661 4.309-12.16 12.117-6.059zM89.6 261.632c111.317-101.12 258.005-161.664 421.973-161.664 101.803 0 219.136 28.587 309.76 82.987 12.117 6.955 24.149 14.763 35.328 23.381 15.531 11.179 1.749 28.544-13.781 21.632-6.869-2.56-14.677-6.101-21.547-8.661-88.986-35.825-192.146-56.753-300.153-57.088h-0.135c-153.6 0-301.995 42.368-421.973 112.384-11.221 6.016-18.987-5.205-9.472-12.971z" />
<glyph unicode="&#xe90e;" glyph-name="anchor" d="M807.68 362.752c-22.382 1.451-39.987 19.961-39.987 42.582 0 23.564 19.103 42.667 42.667 42.667 0.108 0 0.216 0 0.324-0.001h85.316c23.564 0 42.667-19.103 42.667-42.667s-19.103-42.667-42.667-42.667v0h-2.347c-22.247-192.894-184.622-341.27-381.653-341.27s-359.407 148.377-381.486 339.489l-0.167 1.781h-2.347c-23.564 0-42.667 19.103-42.667 42.667s19.103 42.667 42.667 42.667v0h85.333c0.091 0.001 0.199 0.001 0.307 0.001 23.564 0 42.667-19.103 42.667-42.667 0-22.621-17.605-41.131-39.861-42.576l-0.126-0.007c19.481-131.158 121.861-233.553 251.376-252.856l1.637-0.2v429.013c-73.991 19.803-127.587 86.245-127.587 165.206 0 94.129 76.164 170.468 170.227 170.751h0.027c0.050 0 0.109 0 0.169 0 94.257 0 170.667-76.41 170.667-170.667 0-79.156-53.888-145.725-126.979-165.024l-1.19-0.267v-429.013c131.152 19.503 233.533 121.898 252.813 251.42l0.2 1.636zM512 618.667c47.128 0 85.333 38.205 85.333 85.333s-38.205 85.333-85.333 85.333v0c-47.128 0-85.333-38.205-85.333-85.333s38.205-85.333 85.333-85.333v0z" />
<glyph unicode="&#xe90f;" glyph-name="android-circle" d="M357.973 522.752h-1.109c-14.025-0.048-25.381-11.405-25.429-25.425v-110.682c0-14.037 11.392-25.429 25.429-25.429h1.109c14.025 0.048 25.381 11.405 25.429 25.425v110.682c-0.048 14.040-11.429 25.405-25.47 25.429h-0.002zM395.52 343.893c0-12.8 10.539-23.296 23.381-23.296h25.003v-59.819c0-14.037 11.435-25.429 25.429-25.429h1.067c14.043 0.024 25.424 11.39 25.472 25.425v59.824h34.901v-59.819c0-14.037 11.52-25.429 25.429-25.429h1.109c14.025 0.048 25.381 11.405 25.429 25.425v59.824h25.003c12.8 0 23.339 10.453 23.339 23.339v174.763h-235.563v-174.763zM571.989 624.683l19.84 30.635c0.428 0.65 0.684 1.447 0.684 2.304 0 2.333-1.892 4.225-4.225 4.225-1.477 0-2.776-0.757-3.531-1.905l-0.010-0.016-20.565-31.701c-14.954 6.262-32.331 9.899-50.558 9.899-0.106 0-0.211 0-0.317 0h0.016c-18.219 0-35.413-3.584-50.859-9.899l-20.523 31.701c-0.765 1.164-2.065 1.921-3.541 1.921-0.857 0-1.654-0.255-2.32-0.694l0.016 0.010c-1.181-0.762-1.951-2.071-1.951-3.56 0-0.849 0.25-1.639 0.681-2.301l-0.010 0.016 19.883-30.635c-35.797-17.493-59.947-50.56-59.947-88.491 0-2.347 0.171-4.651 0.384-6.912h236.416c0.213 2.261 0.341 4.565 0.341 6.912 0 37.931-24.149 70.955-59.904 88.491zM458.496 569.899c-6.268 0-11.349 5.081-11.349 11.349s5.081 11.349 11.349 11.349v0c6.268 0 11.349-5.081 11.349-11.349s-5.081-11.349-11.349-11.349v0zM568.149 569.899c-0.006 0-0.014 0-0.021 0-6.268 0-11.349 5.081-11.349 11.349 0 6.261 5.069 11.337 11.327 11.349h0.001c6.268 0 11.349-5.081 11.349-11.349s-5.081-11.349-11.349-11.349v0zM669.781 522.752h-1.067c-14.043-0.024-25.424-11.39-25.472-25.425v-110.682c0-14.037 11.52-25.429 25.472-25.429h1.067c14.034 0.024 25.405 11.395 25.429 25.427v110.679c-0.048 14.025-11.405 25.381-25.425 25.429h-0.005zM512 106.667c188.513 0 341.333 152.82 341.333 341.333s-152.82 341.333-341.333 341.333v0c-188.513 0-341.333-152.82-341.333-341.333s152.82-341.333 341.333-341.333v0zM512 21.333c-235.648 0-426.667 191.019-426.667 426.667s191.019 426.667 426.667 426.667 426.667-191.019 426.667-426.667-191.019-426.667-426.667-426.667z" />
<glyph unicode="&#xe910;" glyph-name="android-square" d="M357.973 522.752h-1.109c-14.025-0.048-25.381-11.405-25.429-25.425v-110.682c0-14.037 11.392-25.429 25.429-25.429h1.109c14.025 0.048 25.381 11.405 25.429 25.425v110.682c-0.048 14.040-11.429 25.405-25.47 25.429h-0.002zM395.52 343.893c0-12.8 10.539-23.296 23.381-23.296h25.003v-59.819c0-14.037 11.435-25.429 25.429-25.429h1.067c14.043 0.024 25.424 11.39 25.472 25.425v59.824h34.901v-59.819c0-14.037 11.52-25.429 25.429-25.429h1.109c14.025 0.048 25.381 11.405 25.429 25.425v59.824h25.003c12.8 0 23.339 10.453 23.339 23.339v174.763h-235.563v-174.763zM571.989 624.683l19.84 30.635c0.428 0.65 0.684 1.447 0.684 2.304 0 2.333-1.892 4.225-4.225 4.225-1.477 0-2.776-0.757-3.531-1.905l-0.010-0.016-20.565-31.701c-14.954 6.262-32.331 9.899-50.558 9.899-0.106 0-0.211 0-0.317 0h0.016c-18.219 0-35.413-3.584-50.859-9.899l-20.523 31.701c-0.765 1.164-2.065 1.921-3.541 1.921-0.857 0-1.654-0.255-2.32-0.694l0.016 0.010c-1.181-0.762-1.951-2.071-1.951-3.56 0-0.849 0.25-1.639 0.681-2.301l-0.010 0.016 19.883-30.635c-35.797-17.493-59.947-50.56-59.947-88.491 0-2.347 0.171-4.651 0.384-6.912h236.416c0.213 2.261 0.341 4.565 0.341 6.912 0 37.931-24.149 70.955-59.904 88.491zM458.496 569.899c-6.268 0-11.349 5.081-11.349 11.349s5.081 11.349 11.349 11.349v0c6.268 0 11.349-5.081 11.349-11.349s-5.081-11.349-11.349-11.349v0zM568.149 569.899c-0.006 0-0.014 0-0.021 0-6.268 0-11.349 5.081-11.349 11.349 0 6.261 5.069 11.337 11.327 11.349h0.001c6.268 0 11.349-5.081 11.349-11.349s-5.081-11.349-11.349-11.349v0zM669.781 522.752h-1.067c-14.043-0.024-25.424-11.39-25.472-25.425v-110.682c0-14.037 11.52-25.429 25.472-25.429h1.067c14.034 0.024 25.405 11.395 25.429 25.427v110.679c-0.048 14.025-11.405 25.381-25.425 25.429h-0.005zM256 789.333c-47.128 0-85.333-38.205-85.333-85.333v0-512c0-47.128 38.205-85.333 85.333-85.333v0h512c47.128 0 85.333 38.205 85.333 85.333v0 512c0 47.128-38.205 85.333-85.333 85.333v0h-512zM256 874.667h512c94.257 0 170.667-76.41 170.667-170.667v0-512c0-94.257-76.41-170.667-170.667-170.667v0h-512c-94.257 0-170.667 76.41-170.667 170.667v0 512c0 94.257 76.41 170.667 170.667 170.667v0z" />
<glyph unicode="&#xe911;" glyph-name="android" d="M181.205 596.907h-2.176c-27.989 0-50.773-22.912-50.773-50.773v-221.141c0-27.989 22.784-50.773 50.773-50.773h2.219c27.947 0 50.773 22.827 50.773 50.773v221.141c-0.043 27.904-22.869 50.773-50.816 50.773zM256.299 239.659c0-25.685 20.992-46.592 46.677-46.592h49.92v-119.467c0-28.032 22.827-50.816 50.773-50.816h2.133c28.032 0 50.859 22.827 50.859 50.859v119.424h69.717v-119.467c0-28.032 22.955-50.816 50.859-50.816h2.133c28.032 0 50.816 22.827 50.816 50.859v119.424h49.92c25.643 0 46.635 20.907 46.635 46.592v349.099h-470.443v-349.099zM608.683 800.512l39.637 61.141c0.931 1.334 1.488 2.989 1.488 4.775 0 4.642-3.763 8.405-8.405 8.405-3.015 0-5.659-1.587-7.142-3.971l-0.021-0.036-41.088-63.275c-29.829 12.469-64.489 19.713-100.84 19.713-0.248 0-0.497 0-0.745-0.001h0.038c-36.437 0-70.741-7.083-101.632-19.712l-41.003 63.275c-1.517 2.347-4.121 3.879-7.082 3.879-1.733 0-3.343-0.524-4.681-1.423l0.030 0.019c-2.325-1.521-3.839-4.112-3.839-7.057 0-1.708 0.509-3.296 1.384-4.623l-0.020 0.031 39.68-61.141c-71.509-35.072-119.723-101.077-119.723-176.811 0-4.693 0.256-9.259 0.683-13.781h472.32c0.341 4.523 0.597 9.131 0.597 13.781 0 75.733-48.213 141.739-119.68 176.811zM382.080 690.987c-0.013 0-0.028 0-0.043 0-12.536 0-22.699 10.163-22.699 22.699 0 12.521 10.138 22.674 22.654 22.699h0.002c0.013 0 0.028 0 0.043 0 12.536 0 22.699-10.163 22.699-22.699 0-12.521-10.138-22.674-22.654-22.699h-0.002zM601.045 690.987c-0.019 0-0.042 0-0.064 0-12.536 0-22.699 10.163-22.699 22.699 0 12.514 10.126 22.662 22.631 22.699h0.003c0.019 0 0.042 0 0.064 0 12.536 0 22.699-10.163 22.699-22.699 0-12.514-10.126-22.662-22.631-22.699h-0.003zM804.053 596.907h-2.133c-27.947 0-50.816-22.912-50.816-50.773v-221.141c0-27.989 22.912-50.773 50.816-50.773h2.133c28.032 0 50.816 22.827 50.816 50.773v221.141c0 27.904-22.827 50.773-50.816 50.773z" />
<glyph unicode="&#xe912;" glyph-name="aperture" d="M433.664 400.768l77.525-44.757 79.787 46.080v88.149l-80.683 46.507-76.629-47.872v-88.107zM348.331 450.048v297.557c-78.534-43.59-137.171-114.985-163.165-200.584l-0.633-2.424 163.84-94.549zM170.709 454.059l-0.043-6.059c0-0.146 0-0.318 0-0.491 0-90.8 35.588-173.288 93.576-234.277l-0.136 0.144 161.707 93.397-255.104 147.285zM433.664 589.483l247.808 154.88c-48.502 28.278-106.764 44.971-168.926 44.971-0.192 0-0.384 0-0.576 0h0.030c-26.965 0-53.163-3.115-78.336-9.045v-190.805zM753.792 688.896l-161.536-100.907 260.907-150.656c0.116 3.312 0.181 7.203 0.181 11.11 0 93.908-38.041 178.93-99.555 240.498l0.003-0.003zM676.309 440.917v-292.181c77.016 42.962 134.772 112.644 161.299 196.231l0.664 2.425-161.963 93.525zM335.275 155.904c50.211-30.92 111.048-49.238 176.162-49.238 0.198 0 0.396 0 0.593 0.001h-0.030c27.179 0 53.632 3.157 78.933 9.173v187.733l-255.659-147.627zM512 21.333c-235.648 0-426.667 191.019-426.667 426.667s191.019 426.667 426.667 426.667 426.667-191.019 426.667-426.667-191.019-426.667-426.667-426.667z" />
<glyph unicode="&#xe913;" glyph-name="apple-circle" d="M631.467 434.645c-0.512 54.016 44.117 79.915 46.080 81.237-25.045 36.693-64.085 41.685-77.995 42.24-33.237 3.413-64.853-19.541-81.707-19.541-16.811 0-42.837 19.072-70.4 18.56-36.224-0.555-69.589-21.035-88.235-53.504-37.632-65.28-9.643-162.005 27.008-214.955 17.92-25.899 39.296-55.040 67.371-53.973 27.008 1.067 37.205 17.493 69.888 17.493s41.813-17.493 70.4-16.981c29.099 0.555 47.531 26.453 65.323 52.437 20.565 30.037 29.056 59.179 29.568 60.672-0.64 0.299-56.747 21.76-57.259 86.315zM577.792 593.195c14.891 18.091 24.917 43.136 22.187 68.139-21.461-0.853-47.445-14.293-62.848-32.299-13.781-16-25.899-41.515-22.613-66.048 23.893-1.835 48.341 12.203 63.275 30.208zM512 106.667c188.513 0 341.333 152.82 341.333 341.333s-152.82 341.333-341.333 341.333v0c-188.513 0-341.333-152.82-341.333-341.333s152.82-341.333 341.333-341.333v0zM512 21.333c-235.648 0-426.667 191.019-426.667 426.667s191.019 426.667 426.667 426.667 426.667-191.019 426.667-426.667-191.019-426.667-426.667-426.667z" />
<glyph unicode="&#xe914;" glyph-name="apple-square" d="M631.467 434.645c-0.512 54.016 44.117 79.915 46.080 81.237-25.045 36.693-64.085 41.685-77.995 42.24-33.237 3.413-64.853-19.541-81.707-19.541-16.811 0-42.837 19.072-70.4 18.56-36.224-0.555-69.589-21.035-88.235-53.504-37.632-65.28-9.643-162.005 27.008-214.955 17.92-25.899 39.296-55.040 67.371-53.973 27.008 1.067 37.205 17.493 69.888 17.493s41.813-17.493 70.4-16.981c29.099 0.555 47.531 26.453 65.323 52.437 20.565 30.037 29.056 59.179 29.568 60.672-0.64 0.299-56.747 21.76-57.259 86.315zM577.792 593.195c14.891 18.091 24.917 43.136 22.187 68.139-21.461-0.853-47.445-14.293-62.848-32.299-13.781-16-25.899-41.515-22.613-66.048 23.893-1.835 48.341 12.203 63.275 30.208zM256 789.333c-47.128 0-85.333-38.205-85.333-85.333v0-512c0-47.128 38.205-85.333 85.333-85.333v0h512c47.128 0 85.333 38.205 85.333 85.333v0 512c0 47.128-38.205 85.333-85.333 85.333v0h-512zM256 874.667h512c94.257 0 170.667-76.41 170.667-170.667v0-512c0-94.257-76.41-170.667-170.667-170.667v0h-512c-94.257 0-170.667 76.41-170.667 170.667v0 512c0 94.257 76.41 170.667 170.667 170.667v0z" />
<glyph unicode="&#xe915;" glyph-name="apple" d="M730.581 421.248c-1.067 108.075 88.149 159.915 92.117 162.475-50.133 73.387-128.213 83.413-156.032 84.565-66.432 6.741-129.664-39.125-163.413-39.125-33.621 0-85.675 38.144-140.8 37.12-72.363-1.067-139.136-42.069-176.427-106.923-75.264-130.56-19.285-324.053 54.059-429.952 35.84-51.84 78.592-110.080 134.699-107.947 54.016 2.133 74.453 34.944 139.776 34.944s83.712-34.987 140.885-33.92c58.155 1.109 94.976 52.864 130.56 104.832 41.173 60.16 58.112 118.4 59.136 121.387-1.28 0.555-113.408 43.52-114.517 172.587zM623.147 738.389c29.781 36.139 49.877 86.272 44.373 136.277-42.88-1.707-94.891-28.587-125.653-64.64-27.605-32-51.797-82.987-45.312-132.011 47.872-3.755 96.768 24.32 126.592 60.373z" />
<glyph unicode="&#xe916;" glyph-name="archive-f" d="M810.667 661.333h-682.667c-23.564 0-42.667 19.103-42.667 42.667v0 128c0 23.564 19.103 42.667 42.667 42.667v0h768c23.564 0 42.667-19.103 42.667-42.667v0-128c0-23.564-19.103-42.667-42.667-42.667v0h-85.333zM853.333 576v-512c0-23.564-19.103-42.667-42.667-42.667v0h-597.333c-23.564 0-42.667 19.103-42.667 42.667v0 512h682.667zM426.667 277.333c-23.564 0-42.667-19.103-42.667-42.667s19.103-42.667 42.667-42.667v0h170.667c23.564 0 42.667 19.103 42.667 42.667s-19.103 42.667-42.667 42.667v0h-170.667z" />
<glyph unicode="&#xe917;" glyph-name="archive" d="M170.667 661.333h682.667v128h-682.667v-128zM853.333 576v-512c0-23.564-19.103-42.667-42.667-42.667v0h-597.333c-23.564 0-42.667 19.103-42.667 42.667v0 512h-42.667c-23.564 0-42.667 19.103-42.667 42.667v0 213.333c0 23.564 19.103 42.667 42.667 42.667v0h768c23.564 0 42.667-19.103 42.667-42.667v0-213.333c0-23.564-19.103-42.667-42.667-42.667v0h-42.667zM256 106.667h512v469.333h-512v-469.333zM426.667 277.333h170.667c23.564 0 42.667-19.103 42.667-42.667s-19.103-42.667-42.667-42.667v0h-170.667c-23.564 0-42.667 19.103-42.667 42.667s19.103 42.667 42.667 42.667v0z" />
<glyph unicode="&#xe918;" glyph-name="arrow-circle-down-f" d="M481.835 247.168c7.706-7.749 18.376-12.545 30.165-12.545s22.459 4.796 30.163 12.544l181.037 181.037c8.036 7.769 13.026 18.647 13.026 30.69 0 23.564-19.103 42.667-42.667 42.667-12.043 0-22.92-4.989-30.678-13.014l-108.215-108.215v238.336c0 23.564-19.103 42.667-42.667 42.667s-42.667-19.103-42.667-42.667v0-238.336l-108.203 108.203c-7.769 8.036-18.647 13.026-30.69 13.026-23.564 0-42.667-19.103-42.667-42.667 0-12.043 4.989-22.92 13.014-30.678l181.047-181.047zM512 21.333c-235.648 0-426.667 191.019-426.667 426.667s191.019 426.667 426.667 426.667 426.667-191.019 426.667-426.667-191.019-426.667-426.667-426.667z" />
<glyph unicode="&#xe919;" glyph-name="arrow-circle-down-left-f" d="M348.672 327.339c0-0.038 0-0.083 0-0.128 0-23.493 19.045-42.539 42.539-42.539 0.045 0 0.090 0 0.135 0h255.993c23.564 0 42.667 19.103 42.667 42.667s-19.103 42.667-42.667 42.667v0h-153.003l168.533 168.533c7.716 7.722 12.489 18.386 12.489 30.165 0 23.569-19.106 42.675-42.675 42.675-11.79 0-22.463-4.781-30.186-12.51l-168.534-168.534v153.003c0 23.564-19.103 42.667-42.667 42.667s-42.667-19.103-42.667-42.667v0-256zM512 21.333c-235.648 0-426.667 191.019-426.667 426.667s191.019 426.667 426.667 426.667 426.667-191.019 426.667-426.667-191.019-426.667-426.667-426.667z" />
<glyph unicode="&#xe91a;" glyph-name="arrow-circle-down-left" d="M512 21.333c-235.648 0-426.667 191.019-426.667 426.667s191.019 426.667 426.667 426.667 426.667-191.019 426.667-426.667-191.019-426.667-426.667-426.667zM512 106.667c188.513 0 341.333 152.82 341.333 341.333s-152.82 341.333-341.333 341.333v0c-188.513 0-341.333-152.82-341.333-341.333s152.82-341.333 341.333-341.333v0zM434.005 430.336l168.533 168.533c7.722 7.716 18.386 12.489 30.165 12.489 23.569 0 42.675-19.106 42.675-42.675 0-11.79-4.781-22.463-12.51-30.186l-168.534-168.534h153.003c23.564 0 42.667-19.103 42.667-42.667s-19.103-42.667-42.667-42.667v0h-256c-0.038 0-0.083 0-0.128 0-23.493 0-42.539 19.045-42.539 42.539 0 0.045 0 0.090 0 0.135v-0.007 256c0 23.564 19.103 42.667 42.667 42.667s42.667-19.103 42.667-42.667v0-152.96z" />
<glyph unicode="&#xe91b;" glyph-name="arrow-circle-down-right-f" d="M632.661 284.672c0.038 0 0.083 0 0.128 0 23.493 0 42.539 19.045 42.539 42.539 0 0.045 0 0.090 0 0.135v-0.007 256c0 23.564-19.103 42.667-42.667 42.667s-42.667-19.103-42.667-42.667v0-153.003l-168.533 168.533c-7.72 7.704-18.375 12.467-30.144 12.467-23.569 0-42.675-19.106-42.675-42.675 0-11.8 4.79-22.482 12.531-30.207l168.534-168.534h-153.045c-23.564 0-42.667-19.103-42.667-42.667s19.103-42.667 42.667-42.667v0h256zM512 21.333c-235.648 0-426.667 191.019-426.667 426.667s191.019 426.667 426.667 426.667 426.667-191.019 426.667-426.667-191.019-426.667-426.667-426.667z" />
<glyph unicode="&#xe91c;" glyph-name="arrow-circle-down-right" d="M512 21.333c-235.648 0-426.667 191.019-426.667 426.667s191.019 426.667 426.667 426.667 426.667-191.019 426.667-426.667-191.019-426.667-426.667-426.667zM512 106.667c188.513 0 341.333 152.82 341.333 341.333s-152.82 341.333-341.333 341.333v0c-188.513 0-341.333-152.82-341.333-341.333s152.82-341.333 341.333-341.333v0zM529.664 370.005l-168.533 168.533c-7.704 7.72-12.467 18.375-12.467 30.144 0 23.569 19.106 42.675 42.675 42.675 11.8 0 22.482-4.79 30.207-12.531l168.534-168.534v153.045c0 23.564 19.103 42.667 42.667 42.667s42.667-19.103 42.667-42.667v0-256c0-0.038 0-0.083 0-0.128 0-23.493-19.045-42.539-42.539-42.539-0.045 0-0.090 0-0.135 0h-255.993c-23.564 0-42.667 19.103-42.667 42.667s19.103 42.667 42.667 42.667v0h152.96z" />
<glyph unicode="&#xe91d;" glyph-name="arrow-circle-down" d="M512 21.333c-235.648 0-426.667 191.019-426.667 426.667s191.019 426.667 426.667 426.667 426.667-191.019 426.667-426.667-191.019-426.667-426.667-426.667zM512 106.667c188.513 0 341.333 152.82 341.333 341.333s-152.82 341.333-341.333 341.333v0c-188.513 0-341.333-152.82-341.333-341.333s152.82-341.333 341.333-341.333v0zM469.333 380.331v238.336c0 23.564 19.103 42.667 42.667 42.667s42.667-19.103 42.667-42.667v0-238.336l108.203 108.203c7.665 7.41 18.12 11.977 29.641 11.977 23.564 0 42.667-19.103 42.667-42.667 0-11.521-4.567-21.976-11.989-29.653l-181.023-181.023c-7.706-7.749-18.376-12.545-30.165-12.545s-22.459 4.796-30.163 12.544l-181.037 181.037c-7.41 7.665-11.977 18.12-11.977 29.641 0 23.564 19.103 42.667 42.667 42.667 11.521 0 21.976-4.567 29.653-11.989l108.191-108.191z" />
<glyph unicode="&#xe91e;" glyph-name="arrow-circle-left-f" d="M311.168 478.165c-7.749-7.706-12.545-18.376-12.545-30.165s4.796-22.459 12.544-30.163l181.037-181.037c7.769-8.036 18.647-13.026 30.69-13.026 23.564 0 42.667 19.103 42.667 42.667 0 12.043-4.989 22.92-13.014 30.678l-108.215 108.215h238.336c23.564 0 42.667 19.103 42.667 42.667s-19.103 42.667-42.667 42.667v0h-238.336l108.203 108.203c8.036 7.769 13.026 18.647 13.026 30.69 0 23.564-19.103 42.667-42.667 42.667-12.043 0-22.92-4.989-30.678-13.014l-181.047-181.047zM512 21.333c-235.648 0-426.667 191.019-426.667 426.667s191.019 426.667 426.667 426.667 426.667-191.019 426.667-426.667-191.019-426.667-426.667-426.667z" />
<glyph unicode="&#xe91f;" glyph-name="arrow-circle-left" d="M512 21.333c-235.648 0-426.667 191.019-426.667 426.667s191.019 426.667 426.667 426.667 426.667-191.019 426.667-426.667-191.019-426.667-426.667-426.667zM512 106.667c188.513 0 341.333 152.82 341.333 341.333s-152.82 341.333-341.333 341.333v0c-188.513 0-341.333-152.82-341.333-341.333s152.82-341.333 341.333-341.333v0zM444.331 490.667h238.336c23.564 0 42.667-19.103 42.667-42.667s-19.103-42.667-42.667-42.667v0h-238.336l108.203-108.203c7.41-7.665 11.977-18.12 11.977-29.641 0-23.564-19.103-42.667-42.667-42.667-11.521 0-21.976 4.567-29.653 11.989l-181.023 181.023c-7.749 7.706-12.545 18.376-12.545 30.165s4.796 22.459 12.544 30.163l181.037 181.037c7.665 7.41 18.12 11.977 29.641 11.977 23.564 0 42.667-19.103 42.667-42.667 0-11.521-4.567-21.976-11.989-29.653l-108.191-108.191z" />
<glyph unicode="&#xe920;" glyph-name="arrow-circle-right-f" d="M712.832 417.835c7.749 7.706 12.545 18.376 12.545 30.165s-4.796 22.459-12.544 30.163l-181.037 181.037c-7.665 7.41-18.12 11.977-29.641 11.977-23.564 0-42.667-19.103-42.667-42.667 0-11.521 4.567-21.976 11.989-29.653l108.191-108.191h-238.336c-23.564 0-42.667-19.103-42.667-42.667s19.103-42.667 42.667-42.667v0h238.336l-108.203-108.203c-7.41-7.665-11.977-18.12-11.977-29.641 0-23.564 19.103-42.667 42.667-42.667 11.521 0 21.976 4.567 29.653 11.989l181.023 181.023zM512 21.333c-235.648 0-426.667 191.019-426.667 426.667s191.019 426.667 426.667 426.667 426.667-191.019 426.667-426.667-191.019-426.667-426.667-426.667z" />
<glyph unicode="&#xe921;" glyph-name="arrow-circle-right" d="M512 21.333c-235.648 0-426.667 191.019-426.667 426.667s191.019 426.667 426.667 426.667 426.667-191.019 426.667-426.667-191.019-426.667-426.667-426.667zM512 106.667c188.513 0 341.333 152.82 341.333 341.333s-152.82 341.333-341.333 341.333v0c-188.513 0-341.333-152.82-341.333-341.333s152.82-341.333 341.333-341.333v0zM579.669 405.333h-238.336c-23.564 0-42.667 19.103-42.667 42.667s19.103 42.667 42.667 42.667v0h238.336l-108.203 108.203c-8.036 7.769-13.026 18.647-13.026 30.69 0 23.564 19.103 42.667 42.667 42.667 12.043 0 22.92-4.989 30.678-13.014l181.047-181.047c7.749-7.706 12.545-18.376 12.545-30.165s-4.796-22.459-12.544-30.163l-181.037-181.037c-7.769-8.036-18.647-13.026-30.69-13.026-23.564 0-42.667 19.103-42.667 42.667 0 12.043 4.989 22.92 13.014 30.678l108.215 108.215z" />
<glyph unicode="&#xe922;" glyph-name="arrow-circle-up-f" d="M542.165 648.832c-7.706 7.749-18.376 12.545-30.165 12.545s-22.459-4.796-30.163-12.544l-181.037-181.037c-7.41-7.665-11.977-18.12-11.977-29.641 0-23.564 19.103-42.667 42.667-42.667 11.521 0 21.976 4.567 29.653 11.989l108.191 108.191v-238.336c0-23.564 19.103-42.667 42.667-42.667s42.667 19.103 42.667 42.667v0 238.336l108.203-108.203c7.665-7.41 18.12-11.977 29.641-11.977 23.564 0 42.667 19.103 42.667 42.667 0 11.521-4.567 21.976-11.989 29.653l-181.023 181.023zM512 21.333c-235.648 0-426.667 191.019-426.667 426.667s191.019 426.667 426.667 426.667 426.667-191.019 426.667-426.667-191.019-426.667-426.667-426.667z" />
<glyph unicode="&#xe923;" glyph-name="arrow-circle-up-left-f" d="M391.339 611.328c-0.038 0-0.083 0-0.128 0-23.493 0-42.539-19.045-42.539-42.539 0-0.045 0-0.090 0-0.135v0.007-256c0-23.564 19.103-42.667 42.667-42.667s42.667 19.103 42.667 42.667v0 153.003l168.533-168.533c7.722-7.716 18.386-12.489 30.165-12.489 23.569 0 42.675 19.106 42.675 42.675 0 11.79-4.781 22.463-12.51 30.186l-168.534 168.534h153.003c23.564 0 42.667 19.103 42.667 42.667s-19.103 42.667-42.667 42.667v0h-256zM512 21.333c-235.648 0-426.667 191.019-426.667 426.667s191.019 426.667 426.667 426.667 426.667-191.019 426.667-426.667-191.019-426.667-426.667-426.667z" />
<glyph unicode="&#xe924;" glyph-name="arrow-circle-up-left" d="M512 21.333c-235.648 0-426.667 191.019-426.667 426.667s191.019 426.667 426.667 426.667 426.667-191.019 426.667-426.667-191.019-426.667-426.667-426.667zM512 106.667c188.513 0 341.333 152.82 341.333 341.333s-152.82 341.333-341.333 341.333v0c-188.513 0-341.333-152.82-341.333-341.333s152.82-341.333 341.333-341.333v0zM494.336 525.995l168.533-168.533c7.716-7.722 12.489-18.386 12.489-30.165 0-23.569-19.106-42.675-42.675-42.675-11.79 0-22.463 4.781-30.186 12.51l-168.534 168.534v-153.003c0-23.564-19.103-42.667-42.667-42.667s-42.667 19.103-42.667 42.667v0 256c0 0.038 0 0.083 0 0.128 0 23.493 19.045 42.539 42.539 42.539 0.045 0 0.090 0 0.135 0h255.993c23.564 0 42.667-19.103 42.667-42.667s-19.103-42.667-42.667-42.667v0h-152.917z" />
<glyph unicode="&#xe925;" glyph-name="arrow-circle-up-right-f" d="M675.328 568.661c0 0.038 0 0.083 0 0.128 0 23.493-19.045 42.539-42.539 42.539-0.045 0-0.090 0-0.135 0h-255.993c-23.564 0-42.667-19.103-42.667-42.667s19.103-42.667 42.667-42.667v0h153.003l-168.533-168.533c-7.716-7.722-12.489-18.386-12.489-30.165 0-23.569 19.106-42.675 42.675-42.675 11.79 0 22.463 4.781 30.186 12.51l168.534 168.534v-153.003c0-23.564 19.103-42.667 42.667-42.667s42.667 19.103 42.667 42.667v0 256zM512 21.333c-235.648 0-426.667 191.019-426.667 426.667s191.019 426.667 426.667 426.667 426.667-191.019 426.667-426.667-191.019-426.667-426.667-426.667z" />
<glyph unicode="&#xe926;" glyph-name="arrow-circle-up-right" d="M512 21.333c-235.648 0-426.667 191.019-426.667 426.667s191.019 426.667 426.667 426.667 426.667-191.019 426.667-426.667-191.019-426.667-426.667-426.667zM512 106.667c188.513 0 341.333 152.82 341.333 341.333s-152.82 341.333-341.333 341.333v0c-188.513 0-341.333-152.82-341.333-341.333s152.82-341.333 341.333-341.333v0zM589.995 465.664l-168.533-168.533c-7.722-7.716-18.386-12.489-30.165-12.489-23.569 0-42.675 19.106-42.675 42.675 0 11.79 4.781 22.463 12.51 30.186l168.534 168.534h-153.003c-23.564 0-42.667 19.103-42.667 42.667s19.103 42.667 42.667 42.667v0h256c0.038 0 0.083 0 0.128 0 23.493 0 42.539-19.045 42.539-42.539 0-0.045 0-0.090 0-0.135v0.007-256c0-23.564-19.103-42.667-42.667-42.667s-42.667 19.103-42.667 42.667v0 152.917z" />
<glyph unicode="&#xe927;" glyph-name="arrow-circle-up" d="M554.667 515.669v-238.336c0-23.564-19.103-42.667-42.667-42.667s-42.667 19.103-42.667 42.667v0 238.336l-108.203-108.203c-7.769-8.036-18.647-13.026-30.69-13.026-23.564 0-42.667 19.103-42.667 42.667 0 12.043 4.989 22.92 13.014 30.678l181.047 181.047c7.706 7.749 18.376 12.545 30.165 12.545s22.459-4.796 30.163-12.544l181.037-181.037c8.036-7.769 13.026-18.647 13.026-30.69 0-23.564-19.103-42.667-42.667-42.667-12.043 0-22.92 4.989-30.678 13.014l-108.215 108.215zM512 21.333c-235.648 0-426.667 191.019-426.667 426.667s191.019 426.667 426.667 426.667 426.667-191.019 426.667-426.667-191.019-426.667-426.667-426.667zM512 106.667c188.513 0 341.333 152.82 341.333 341.333s-152.82 341.333-341.333 341.333v0c-188.513 0-341.333-152.82-341.333-341.333s152.82-341.333 341.333-341.333v0z" />
<glyph unicode="&#xe928;" glyph-name="arrow-down-left" d="M440.661 302.933h238.336c23.564 0 42.667-19.103 42.667-42.667s-19.103-42.667-42.667-42.667v0h-341.333c-0.038 0-0.083 0-0.128 0-23.493 0-42.539 19.045-42.539 42.539 0 0.045 0 0.090 0 0.135v-0.007 341.333c0 23.564 19.103 42.667 42.667 42.667s42.667-19.103 42.667-42.667v0-238.293l289.195 289.195c7.724 7.729 18.397 12.51 30.187 12.51 23.569 0 42.675-19.106 42.675-42.675 0-11.779-4.772-22.444-12.489-30.166l-289.237-289.237z" />
<glyph unicode="&#xe929;" glyph-name="arrow-down-right" d="M657.067 363.307v238.293c0 23.564 19.103 42.667 42.667 42.667s42.667-19.103 42.667-42.667v0-341.333c0-0.038 0-0.083 0-0.128 0-23.493-19.045-42.539-42.539-42.539-0.045 0-0.090 0-0.135 0h-341.326c-23.564 0-42.667 19.103-42.667 42.667s19.103 42.667 42.667 42.667v0h238.293l-289.195 289.237c-7.41 7.665-11.977 18.12-11.977 29.641 0 23.564 19.103 42.667 42.667 42.667 11.521 0 21.976-4.567 29.653-11.989l289.225-289.183z" />
<glyph unicode="&#xe92a;" glyph-name="arrow-down" d="M554.667 288.299l168.533 168.533c7.769 8.036 18.647 13.026 30.69 13.026 23.564 0 42.667-19.103 42.667-42.667 0-12.043-4.989-22.92-13.014-30.678l-241.377-241.377c-7.706-7.749-18.376-12.545-30.165-12.545s-22.459 4.796-30.163 12.544l-241.367 241.367c-8.036 7.769-13.026 18.647-13.026 30.69 0 23.564 19.103 42.667 42.667 42.667 12.043 0 22.92-4.989 30.678-13.014l168.545-168.545v409.003c0 23.564 19.103 42.667 42.667 42.667s42.667-19.103 42.667-42.667v0-409.003z" />
<glyph unicode="&#xe92b;" glyph-name="arrow-left" d="M358.997 419.968l168.533-168.533c7.15-7.611 11.543-17.885 11.543-29.185 0-23.564-19.103-42.667-42.667-42.667-11.311 0-21.594 4.401-29.229 11.585l0.022-0.020-241.365 241.323c-7.749 7.706-12.545 18.376-12.545 30.165s4.796 22.459 12.544 30.163l241.367 241.367c7.769 8.036 18.647 13.026 30.69 13.026 23.564 0 42.667-19.103 42.667-42.667 0-12.043-4.989-22.92-13.014-30.678l-168.545-168.545h409.003c23.564 0 42.667-19.103 42.667-42.667s-19.103-42.667-42.667-42.667v0h-409.003z" />
<glyph unicode="&#xe92c;" glyph-name="arrow-right" d="M665.003 505.301l-168.533 168.533c-7.41 7.665-11.977 18.12-11.977 29.641 0 23.564 19.103 42.667 42.667 42.667 11.521 0 21.976-4.567 29.653-11.989l241.353-241.353c7.749-7.706 12.545-18.376 12.545-30.165s-4.796-22.459-12.544-30.163l-241.367-241.367c-7.769-8.036-18.647-13.026-30.69-13.026-23.564 0-42.667 19.103-42.667 42.667 0 12.043 4.989 22.92 13.014 30.678l168.545 168.545h-409.003c-23.564 0-42.667 19.103-42.667 42.667s19.103 42.667 42.667 42.667v0h409.003z" />
<glyph unicode="&#xe92d;" glyph-name="arrow-square-down-f" d="M481.835 247.168c7.706-7.749 18.376-12.545 30.165-12.545s22.459 4.796 30.163 12.544l181.037 181.037c8.036 7.769 13.026 18.647 13.026 30.69 0 23.564-19.103 42.667-42.667 42.667-12.043 0-22.92-4.989-30.678-13.014l-108.215-108.215v238.336c0 23.564-19.103 42.667-42.667 42.667s-42.667-19.103-42.667-42.667v0-238.336l-108.203 108.203c-7.769 8.036-18.647 13.026-30.69 13.026-23.564 0-42.667-19.103-42.667-42.667 0-12.043 4.989-22.92 13.014-30.678l181.047-181.047zM256 874.667h512c94.257 0 170.667-76.41 170.667-170.667v0-512c0-94.257-76.41-170.667-170.667-170.667v0h-512c-94.257 0-170.667 76.41-170.667 170.667v0 512c0 94.257 76.41 170.667 170.667 170.667v0z" />
<glyph unicode="&#xe92e;" glyph-name="arrow-square-down-left-f" d="M348.672 327.339c0-0.038 0-0.083 0-0.128 0-23.493 19.045-42.539 42.539-42.539 0.045 0 0.090 0 0.135 0h255.993c23.564 0 42.667 19.103 42.667 42.667s-19.103 42.667-42.667 42.667v0h-153.003l168.533 168.533c7.716 7.722 12.489 18.386 12.489 30.165 0 23.569-19.106 42.675-42.675 42.675-11.79 0-22.463-4.781-30.186-12.51l-168.534-168.534v153.003c0 23.564-19.103 42.667-42.667 42.667s-42.667-19.103-42.667-42.667v0-256zM256 874.667h512c94.257 0 170.667-76.41 170.667-170.667v0-512c0-94.257-76.41-170.667-170.667-170.667v0h-512c-94.257 0-170.667 76.41-170.667 170.667v0 512c0 94.257 76.41 170.667 170.667 170.667v0z" />
<glyph unicode="&#xe92f;" glyph-name="arrow-square-down-left" d="M256 789.333c-47.128 0-85.333-38.205-85.333-85.333v0-512c0-47.128 38.205-85.333 85.333-85.333v0h512c47.128 0 85.333 38.205 85.333 85.333v0 512c0 47.128-38.205 85.333-85.333 85.333v0h-512zM256 874.667h512c94.257 0 170.667-76.41 170.667-170.667v0-512c0-94.257-76.41-170.667-170.667-170.667v0h-512c-94.257 0-170.667 76.41-170.667 170.667v0 512c0 94.257 76.41 170.667 170.667 170.667v0zM434.005 430.336l168.533 168.533c7.722 7.716 18.386 12.489 30.165 12.489 23.569 0 42.675-19.106 42.675-42.675 0-11.79-4.781-22.463-12.51-30.186l-168.534-168.534h153.003c23.564 0 42.667-19.103 42.667-42.667s-19.103-42.667-42.667-42.667v0h-256c-0.038 0-0.083 0-0.128 0-23.493 0-42.539 19.045-42.539 42.539 0 0.045 0 0.090 0 0.135v-0.007 256c0 23.564 19.103 42.667 42.667 42.667s42.667-19.103 42.667-42.667v0-152.96z" />
<glyph unicode="&#xe930;" glyph-name="arrow-square-down-right-f" d="M632.661 284.672c0.038 0 0.083 0 0.128 0 23.493 0 42.539 19.045 42.539 42.539 0 0.045 0 0.090 0 0.135v-0.007 256c0 23.564-19.103 42.667-42.667 42.667s-42.667-19.103-42.667-42.667v0-153.003l-168.533 168.533c-7.72 7.704-18.375 12.467-30.144 12.467-23.569 0-42.675-19.106-42.675-42.675 0-11.8 4.79-22.482 12.531-30.207l168.534-168.534h-153.045c-23.564 0-42.667-19.103-42.667-42.667s19.103-42.667 42.667-42.667v0h256zM256 874.667h512c94.257 0 170.667-76.41 170.667-170.667v0-512c0-94.257-76.41-170.667-170.667-170.667v0h-512c-94.257 0-170.667 76.41-170.667 170.667v0 512c0 94.257 76.41 170.667 170.667 170.667v0z" />
<glyph unicode="&#xe931;" glyph-name="arrow-square-down-right" d="M256 789.333c-47.128 0-85.333-38.205-85.333-85.333v0-512c0-47.128 38.205-85.333 85.333-85.333v0h512c47.128 0 85.333 38.205 85.333 85.333v0 512c0 47.128-38.205 85.333-85.333 85.333v0h-512zM256 874.667h512c94.257 0 170.667-76.41 170.667-170.667v0-512c0-94.257-76.41-170.667-170.667-170.667v0h-512c-94.257 0-170.667 76.41-170.667 170.667v0 512c0 94.257 76.41 170.667 170.667 170.667v0zM529.664 370.005l-168.533 168.533c-7.704 7.72-12.467 18.375-12.467 30.144 0 23.569 19.106 42.675 42.675 42.675 11.8 0 22.482-4.79 30.207-12.531l168.534-168.534v153.045c0 23.564 19.103 42.667 42.667 42.667s42.667-19.103 42.667-42.667v0-256c0-0.038 0-0.083 0-0.128 0-23.493-19.045-42.539-42.539-42.539-0.045 0-0.090 0-0.135 0h-255.993c-23.564 0-42.667 19.103-42.667 42.667s19.103 42.667 42.667 42.667v0h152.96z" />
<glyph unicode="&#xe932;" glyph-name="arrow-square-down" d="M256 789.333c-47.128 0-85.333-38.205-85.333-85.333v0-512c0-47.128 38.205-85.333 85.333-85.333v0h512c47.128 0 85.333 38.205 85.333 85.333v0 512c0 47.128-38.205 85.333-85.333 85.333v0h-512zM256 874.667h512c94.257 0 170.667-76.41 170.667-170.667v0-512c0-94.257-76.41-170.667-170.667-170.667v0h-512c-94.257 0-170.667 76.41-170.667 170.667v0 512c0 94.257 76.41 170.667 170.667 170.667v0zM469.333 380.331v238.336c0 23.564 19.103 42.667 42.667 42.667s42.667-19.103 42.667-42.667v0-238.336l108.203 108.203c7.665 7.41 18.12 11.977 29.641 11.977 23.564 0 42.667-19.103 42.667-42.667 0-11.521-4.567-21.976-11.989-29.653l-181.023-181.023c-7.706-7.749-18.376-12.545-30.165-12.545s-22.459 4.796-30.163 12.544l-181.037 181.037c-8.036 7.769-13.026 18.647-13.026 30.69 0 23.564 19.103 42.667 42.667 42.667 12.043 0 22.92-4.989 30.678-13.014l108.215-108.215z" />
<glyph unicode="&#xe933;" glyph-name="arrow-square-left-f" d="M311.168 478.165c-7.749-7.706-12.545-18.376-12.545-30.165s4.796-22.459 12.544-30.163l181.037-181.037c7.769-8.036 18.647-13.026 30.69-13.026 23.564 0 42.667 19.103 42.667 42.667 0 12.043-4.989 22.92-13.014 30.678l-108.215 108.215h238.336c23.564 0 42.667 19.103 42.667 42.667s-19.103 42.667-42.667 42.667v0h-238.336l108.203 108.203c8.036 7.769 13.026 18.647 13.026 30.69 0 23.564-19.103 42.667-42.667 42.667-12.043 0-22.92-4.989-30.678-13.014l-181.047-181.047zM256 874.667h512c94.257 0 170.667-76.41 170.667-170.667v0-512c0-94.257-76.41-170.667-170.667-170.667v0h-512c-94.257 0-170.667 76.41-170.667 170.667v0 512c0 94.257 76.41 170.667 170.667 170.667v0z" />
<glyph unicode="&#xe934;" glyph-name="arrow-square-left" d="M256 789.333c-47.128 0-85.333-38.205-85.333-85.333v0-512c0-47.128 38.205-85.333 85.333-85.333v0h512c47.128 0 85.333 38.205 85.333 85.333v0 512c0 47.128-38.205 85.333-85.333 85.333v0h-512zM256 874.667h512c94.257 0 170.667-76.41 170.667-170.667v0-512c0-94.257-76.41-170.667-170.667-170.667v0h-512c-94.257 0-170.667 76.41-170.667 170.667v0 512c0 94.257 76.41 170.667 170.667 170.667v0zM444.331 490.667h238.336c23.564 0 42.667-19.103 42.667-42.667s-19.103-42.667-42.667-42.667v0h-238.336l108.203-108.203c7.41-7.665 11.977-18.12 11.977-29.641 0-23.564-19.103-42.667-42.667-42.667-11.521 0-21.976 4.567-29.653 11.989l-181.023 181.023c-7.749 7.706-12.545 18.376-12.545 30.165s4.796 22.459 12.544 30.163l181.037 181.037c7.769 8.036 18.647 13.026 30.69 13.026 23.564 0 42.667-19.103 42.667-42.667 0-12.043-4.989-22.92-13.014-30.678l-108.215-108.215z" />
<glyph unicode="&#xe935;" glyph-name="arrow-square-right-f" d="M712.832 417.835c7.749 7.706 12.545 18.376 12.545 30.165s-4.796 22.459-12.544 30.163l-181.037 181.037c-7.665 7.41-18.12 11.977-29.641 11.977-23.564 0-42.667-19.103-42.667-42.667 0-11.521 4.567-21.976 11.989-29.653l108.191-108.191h-238.336c-23.564 0-42.667-19.103-42.667-42.667s19.103-42.667 42.667-42.667v0h238.336l-108.203-108.203c-7.41-7.665-11.977-18.12-11.977-29.641 0-23.564 19.103-42.667 42.667-42.667 11.521 0 21.976 4.567 29.653 11.989l181.023 181.023zM256 874.667h512c94.257 0 170.667-76.41 170.667-170.667v0-512c0-94.257-76.41-170.667-170.667-170.667v0h-512c-94.257 0-170.667 76.41-170.667 170.667v0 512c0 94.257 76.41 170.667 170.667 170.667v0z" />
<glyph unicode="&#xe936;" glyph-name="arrow-square-right" d="M256 789.333c-47.128 0-85.333-38.205-85.333-85.333v0-512c0-47.128 38.205-85.333 85.333-85.333v0h512c47.128 0 85.333 38.205 85.333 85.333v0 512c0 47.128-38.205 85.333-85.333 85.333v0h-512zM256 874.667h512c94.257 0 170.667-76.41 170.667-170.667v0-512c0-94.257-76.41-170.667-170.667-170.667v0h-512c-94.257 0-170.667 76.41-170.667 170.667v0 512c0 94.257 76.41 170.667 170.667 170.667v0zM579.669 405.333h-238.336c-23.564 0-42.667 19.103-42.667 42.667s19.103 42.667 42.667 42.667v0h238.336l-108.203 108.203c-7.41 7.665-11.977 18.12-11.977 29.641 0 23.564 19.103 42.667 42.667 42.667 11.521 0 21.976-4.567 29.653-11.989l181.023-181.023c7.749-7.706 12.545-18.376 12.545-30.165s-4.796-22.459-12.544-30.163l-181.037-181.037c-7.769-8.036-18.647-13.026-30.69-13.026-23.564 0-42.667 19.103-42.667 42.667 0 12.043 4.989 22.92 13.014 30.678l108.215 108.215z" />
<glyph unicode="&#xe937;" glyph-name="arrow-square-up-f" d="M542.165 648.832c-7.706 7.749-18.376 12.545-30.165 12.545s-22.459-4.796-30.163-12.544l-181.037-181.037c-7.41-7.665-11.977-18.12-11.977-29.641 0-23.564 19.103-42.667 42.667-42.667 11.521 0 21.976 4.567 29.653 11.989l108.191 108.191v-238.336c0-23.564 19.103-42.667 42.667-42.667s42.667 19.103 42.667 42.667v0 238.336l108.203-108.203c7.665-7.41 18.12-11.977 29.641-11.977 23.564 0 42.667 19.103 42.667 42.667 0 11.521-4.567 21.976-11.989 29.653l-181.023 181.023zM256 874.667h512c94.257 0 170.667-76.41 170.667-170.667v0-512c0-94.257-76.41-170.667-170.667-170.667v0h-512c-94.257 0-170.667 76.41-170.667 170.667v0 512c0 94.257 76.41 170.667 170.667 170.667v0z" />
<glyph unicode="&#xe938;" glyph-name="arrow-square-up-left-f" d="M391.339 611.328c-0.038 0-0.083 0-0.128 0-23.493 0-42.539-19.045-42.539-42.539 0-0.045 0-0.090 0-0.135v0.007-256c0-23.564 19.103-42.667 42.667-42.667s42.667 19.103 42.667 42.667v0 153.003l168.533-168.533c7.722-7.716 18.386-12.489 30.165-12.489 23.569 0 42.675 19.106 42.675 42.675 0 11.79-4.781 22.463-12.51 30.186l-168.534 168.534h153.003c23.564 0 42.667 19.103 42.667 42.667s-19.103 42.667-42.667 42.667v0h-256zM256 874.667h512c94.257 0 170.667-76.41 170.667-170.667v0-512c0-94.257-76.41-170.667-170.667-170.667v0h-512c-94.257 0-170.667 76.41-170.667 170.667v0 512c0 94.257 76.41 170.667 170.667 170.667v0z" />
<glyph unicode="&#xe939;" glyph-name="arrow-square-up-left" d="M256 789.333c-47.128 0-85.333-38.205-85.333-85.333v0-512c0-47.128 38.205-85.333 85.333-85.333v0h512c47.128 0 85.333 38.205 85.333 85.333v0 512c0 47.128-38.205 85.333-85.333 85.333v0h-512zM256 874.667h512c94.257 0 170.667-76.41 170.667-170.667v0-512c0-94.257-76.41-170.667-170.667-170.667v0h-512c-94.257 0-170.667 76.41-170.667 170.667v0 512c0 94.257 76.41 170.667 170.667 170.667v0zM494.336 525.995l168.533-168.533c7.716-7.722 12.489-18.386 12.489-30.165 0-23.569-19.106-42.675-42.675-42.675-11.79 0-22.463 4.781-30.186 12.51l-168.534 168.534v-153.003c0-23.564-19.103-42.667-42.667-42.667s-42.667 19.103-42.667 42.667v0 256c0 0.038 0 0.083 0 0.128 0 23.493 19.045 42.539 42.539 42.539 0.045 0 0.090 0 0.135 0h255.993c23.564 0 42.667-19.103 42.667-42.667s-19.103-42.667-42.667-42.667v0h-152.917z" />
<glyph unicode="&#xe93a;" glyph-name="arrow-square-up-right-f" d="M675.328 568.661c0 0.038 0 0.083 0 0.128 0 23.493-19.045 42.539-42.539 42.539-0.045 0-0.090 0-0.135 0h-255.993c-23.564 0-42.667-19.103-42.667-42.667s19.103-42.667 42.667-42.667v0h153.003l-168.533-168.533c-7.716-7.722-12.489-18.386-12.489-30.165 0-23.569 19.106-42.675 42.675-42.675 11.79 0 22.463 4.781 30.186 12.51l168.534 168.534v-153.003c0-23.564 19.103-42.667 42.667-42.667s42.667 19.103 42.667 42.667v0 256zM256 874.667h512c94.257 0 170.667-76.41 170.667-170.667v0-512c0-94.257-76.41-170.667-170.667-170.667v0h-512c-94.257 0-170.667 76.41-170.667 170.667v0 512c0 94.257 76.41 170.667 170.667 170.667v0z" />
<glyph unicode="&#xe93b;" glyph-name="arrow-square-up-right" d="M256 789.333c-47.128 0-85.333-38.205-85.333-85.333v0-512c0-47.128 38.205-85.333 85.333-85.333v0h512c47.128 0 85.333 38.205 85.333 85.333v0 512c0 47.128-38.205 85.333-85.333 85.333v0h-512zM256 874.667h512c94.257 0 170.667-76.41 170.667-170.667v0-512c0-94.257-76.41-170.667-170.667-170.667v0h-512c-94.257 0-170.667 76.41-170.667 170.667v0 512c0 94.257 76.41 170.667 170.667 170.667v0zM589.995 465.664l-168.533-168.533c-7.722-7.716-18.386-12.489-30.165-12.489-23.569 0-42.675 19.106-42.675 42.675 0 11.79 4.781 22.463 12.51 30.186l168.534 168.534h-153.003c-23.564 0-42.667 19.103-42.667 42.667s19.103 42.667 42.667 42.667v0h256c0.038 0 0.083 0 0.128 0 23.493 0 42.539-19.045 42.539-42.539 0-0.045 0-0.090 0-0.135v0.007-256c0-23.564-19.103-42.667-42.667-42.667s-42.667 19.103-42.667 42.667v0 152.917z" />
<glyph unicode="&#xe93c;" glyph-name="arrow-square-up" d="M256 789.333c-47.128 0-85.333-38.205-85.333-85.333v0-512c0-47.128 38.205-85.333 85.333-85.333v0h512c47.128 0 85.333 38.205 85.333 85.333v0 512c0 47.128-38.205 85.333-85.333 85.333v0h-512zM256 874.667h512c94.257 0 170.667-76.41 170.667-170.667v0-512c0-94.257-76.41-170.667-170.667-170.667v0h-512c-94.257 0-170.667 76.41-170.667 170.667v0 512c0 94.257 76.41 170.667 170.667 170.667v0zM554.667 515.669v-238.336c0-23.564-19.103-42.667-42.667-42.667s-42.667 19.103-42.667 42.667v0 238.336l-108.203-108.203c-7.769-8.036-18.647-13.026-30.69-13.026-23.564 0-42.667 19.103-42.667 42.667 0 12.043 4.989 22.92 13.014 30.678l181.047 181.047c7.706 7.749 18.376 12.545 30.165 12.545s22.459-4.796 30.163-12.544l181.037-181.037c8.036-7.769 13.026-18.647 13.026-30.69 0-23.564-19.103-42.667-42.667-42.667-12.043 0-22.92 4.989-30.678 13.014l-108.215 108.215z" />
<glyph unicode="&#xe93d;" glyph-name="arrow-up-left" d="M373.632 519.339v-238.336c0-23.564-19.103-42.667-42.667-42.667s-42.667 19.103-42.667 42.667v0 341.333c0 0.038 0 0.083 0 0.128 0 23.493 19.045 42.539 42.539 42.539 0.045 0 0.090 0 0.135 0h341.326c23.564 0 42.667-19.103 42.667-42.667s-19.103-42.667-42.667-42.667v0h-238.293l289.195-289.195c7.729-7.724 12.51-18.397 12.51-30.187 0-23.569-19.106-42.675-42.675-42.675-11.779 0-22.444 4.772-30.166 12.489l-289.237 289.237z" />
<glyph unicode="&#xe93e;" glyph-name="arrow-up-right" d="M589.995 579.669h-238.293c-23.564 0-42.667 19.103-42.667 42.667s19.103 42.667 42.667 42.667v0h341.333c0.038 0 0.083 0 0.128 0 23.493 0 42.539-19.045 42.539-42.539 0-0.045 0-0.090 0-0.135v0.007-341.333c0-23.564-19.103-42.667-42.667-42.667s-42.667 19.103-42.667 42.667v0 238.336l-289.237-289.237c-7.722-7.716-18.386-12.489-30.165-12.489-23.569 0-42.675 19.106-42.675 42.675 0 11.79 4.781 22.463 12.51 30.186l289.195 289.195z" />
<glyph unicode="&#xe93f;" glyph-name="arrow-up" d="M469.333 594.304l-168.533-168.533c-7.665-7.41-18.12-11.977-29.641-11.977-23.564 0-42.667 19.103-42.667 42.667 0 11.521 4.567 21.976 11.989 29.653l241.353 241.353c7.706 7.749 18.376 12.545 30.165 12.545s22.459-4.796 30.163-12.544l241.367-241.367c7.15-7.611 11.543-17.885 11.543-29.185 0-23.564-19.103-42.667-42.667-42.667-11.311 0-21.594 4.401-29.229 11.585l0.022-0.020-168.533 168.533v-409.003c0-23.564-19.103-42.667-42.667-42.667s-42.667 19.103-42.667 42.667v0 409.003z" />
<glyph unicode="&#xe940;" glyph-name="arrows-corners" d="M128 874.667h256c23.564 0 42.667-19.103 42.667-42.667s-19.103-42.667-42.667-42.667v0h-153.003l622.336-622.336v153.003c0 23.564 19.103 42.667 42.667 42.667s42.667-19.103 42.667-42.667v0-256c0-23.564-19.103-42.667-42.667-42.667v0h-256c-23.564 0-42.667 19.103-42.667 42.667s19.103 42.667 42.667 42.667v0h153.003l-622.336 622.336v-153.003c0-23.564-19.103-42.667-42.667-42.667s-42.667 19.103-42.667 42.667v0 256c0 23.564 19.103 42.667 42.667 42.667v0z" />
<glyph unicode="&#xe941;" glyph-name="arrows-fullscreen" d="M896 874.667c23.564 0 42.667-19.103 42.667-42.667v0-256c0-23.564-19.103-42.667-42.667-42.667s-42.667 19.103-42.667 42.667v0 153.003l-281.003-281.003 281.003-281.003v153.003c0 23.564 19.103 42.667 42.667 42.667s42.667-19.103 42.667-42.667v0-256c0-23.564-19.103-42.667-42.667-42.667v0h-256c-23.564 0-42.667 19.103-42.667 42.667s19.103 42.667 42.667 42.667v0h153.003l-281.003 281.003-281.003-281.003h153.003c23.564 0 42.667-19.103 42.667-42.667s-19.103-42.667-42.667-42.667v0h-256c-23.564 0-42.667 19.103-42.667 42.667v0 256c0 23.564 19.103 42.667 42.667 42.667s42.667-19.103 42.667-42.667v0-153.003l281.003 281.003-281.003 281.003v-153.003c0-23.564-19.103-42.667-42.667-42.667s-42.667 19.103-42.667 42.667v0 256c0 23.564 19.103 42.667 42.667 42.667v0h256c23.564 0 42.667-19.103 42.667-42.667s-19.103-42.667-42.667-42.667v0h-153.003l281.003-281.003 281.003 281.003h-153.003c-23.564 0-42.667 19.103-42.667 42.667s19.103 42.667 42.667 42.667v0h256z" />
<glyph unicode="&#xe942;" glyph-name="arrows-h" d="M231.381 490.837h561.237l-108.245 108.203c-7.716 7.722-12.489 18.386-12.489 30.165 0 23.569 19.106 42.675 42.675 42.675 11.79 0 22.463-4.781 30.186-12.51l180.992-181.035c7.718-7.721 12.492-18.386 12.492-30.165s-4.774-22.445-12.492-30.165l-180.992-180.992c-7.724-7.729-18.397-12.51-30.187-12.51-23.569 0-42.675 19.106-42.675 42.675 0 11.779 4.772 22.444 12.489 30.166v0l108.203 108.16h-561.195l108.245-108.117c7.716-7.722 12.489-18.386 12.489-30.165 0-23.569-19.106-42.675-42.675-42.675-11.79 0-22.463 4.781-30.186 12.51v0l-181.035 180.949c-7.749 7.706-12.545 18.376-12.545 30.165s4.796 22.459 12.544 30.163l180.994 181.037c7.728 7.738 18.409 12.525 30.208 12.525 23.577 0 42.69-19.113 42.69-42.69 0-11.778-4.77-22.442-12.483-30.166v0l-108.245-108.203z" />
<glyph unicode="&#xe943;" glyph-name="arrows-v" d="M469.333 167.552v561.237l-108.203-108.16c-7.665-7.41-18.12-11.977-29.641-11.977-23.564 0-42.667 19.103-42.667 42.667 0 11.521 4.567 21.976 11.989 29.653l181.023 181.023c7.721 7.718 18.386 12.492 30.165 12.492s22.445-4.774 30.165-12.492l181.035-181.035c8.036-7.769 13.026-18.647 13.026-30.69 0-23.564-19.103-42.667-42.667-42.667-12.043 0-22.92 4.989-30.678 13.014l-108.215 108.129v-561.237l108.203 108.203c7.769 8.036 18.647 13.026 30.69 13.026 23.564 0 42.667-19.103 42.667-42.667 0-12.043-4.989-22.92-13.014-30.678l-181.047-181.047c-7.706-7.749-18.376-12.545-30.165-12.545s-22.459 4.796-30.163 12.544l-181.037 181.079c-8.036 7.769-13.026 18.647-13.026 30.69 0 23.564 19.103 42.667 42.667 42.667 12.043 0 22.92-4.989 30.678-13.014l108.215-108.215z" />
<glyph unicode="&#xe944;" glyph-name="attachment" d="M850.475 667.349c7.274 7.695 17.553 12.484 28.949 12.484s21.675-4.789 28.932-12.465l0.018-0.019c16-16.64 16-43.605 0-60.245l-491.947-512.384c-36.358-38.468-87.735-62.413-144.704-62.413s-108.346 23.944-144.615 62.318l-0.089 0.094c-79.915 83.2-79.915 218.155 0 301.397l434.048 452.096c21.816 23.081 52.644 37.448 86.827 37.448s65.010-14.367 86.774-37.392l0.053-0.057c47.957-49.92 47.957-130.901 0-180.864l-376.235-391.723c-7.273-7.681-17.542-12.461-28.928-12.461s-21.655 4.78-28.911 12.443l-0.017 0.018c-7.418 7.839-11.98 18.448-11.98 30.123s4.561 22.284 11.999 30.143l-0.019-0.020 376.235 391.808c7.431 7.841 12 18.459 12 30.144s-4.569 22.303-12.018 30.164l0.019-0.020c-7.274 7.695-17.553 12.484-28.949 12.484s-21.675-4.789-28.932-12.465l-0.018-0.019-434.133-452.181c-47.915-49.92-47.915-130.901 0-180.821 21.816-23.081 52.644-37.448 86.827-37.448s65.010 14.367 86.774 37.392l0.053 0.057 491.989 512.384z" />
<glyph unicode="&#xe945;" glyph-name="background-color" d="M577.835 362.667l21.589-59.136c7.253-19.883 31.317-30.805 53.76-24.32 22.4 6.4 34.688 27.776 27.435 47.659l-87.467 239.36c-8.405 23.125-28.8 41.259-54.827 48.725-44.8 12.885-92.971-8.917-107.52-48.683l-87.339-239.36c-7.253-19.925 5.035-41.259 27.435-47.744 22.4-6.4 46.507 4.48 53.76 24.363l21.547 59.136h131.627zM546.688 448h-69.333l34.645 94.891 34.688-94.891zM341.333 704h341.333c47.128 0 85.333-38.205 85.333-85.333v0-341.333c0-47.128-38.205-85.333-85.333-85.333v0h-341.333c-47.128 0-85.333 38.205-85.333 85.333v0 341.333c0 47.128 38.205 85.333 85.333 85.333v0z" />
<glyph unicode="&#xe946;" glyph-name="backpack-f" d="M469.333 277.333c0-23.564 19.103-42.667 42.667-42.667s42.667 19.103 42.667 42.667v0h128c31.104 0 60.245 8.32 85.333 22.827v-193.493c0-47.128-38.205-85.333-85.333-85.333v0h-341.333c-47.128 0-85.333 38.205-85.333 85.333v0 193.493c25.088-14.507 54.229-22.827 85.333-22.827h128zM554.667 320v128c0 23.564-19.103 42.667-42.667 42.667s-42.667-19.103-42.667-42.667v0-128h-128c-70.692 0-128 57.308-128 128v0 128c0 70.692 57.308 128 128 128v0h341.333c70.692 0 128-57.308 128-128v0-128c0-70.692-57.308-128-128-128v0h-128zM426.667 746.667h-85.333c-14.72 0-29.013-1.877-42.667-5.376v69.376c0 35.346 28.654 64 64 64s64-28.654 64-64v0-64zM725.333 741.291c-12.766 3.415-27.422 5.376-42.536 5.376-0.046 0-0.092 0-0.138 0h-85.326v64c0 35.346 28.654 64 64 64s64-28.654 64-64v0-69.376z" />
<glyph unicode="&#xe947;" glyph-name="backpack" d="M341.333 320v-213.333h341.333v213.333h-341.333zM768 352.597v-245.931c0-47.128-38.205-85.333-85.333-85.333v0h-341.333c-47.128 0-85.333 38.205-85.333 85.333v0 245.931c-26.197 23.467-42.667 57.515-42.667 95.403v128c0 70.692 57.308 128 128 128v0h341.333c70.692 0 128-57.308 128-128v0-128c0-37.888-16.469-71.979-42.667-95.403zM341.333 618.667c-23.564 0-42.667-19.103-42.667-42.667v0-128c0-23.564 19.103-42.667 42.667-42.667v0h341.333c23.564 0 42.667 19.103 42.667 42.667v0 128c0 23.564-19.103 42.667-42.667 42.667v0h-341.333zM554.667 405.333h-85.333v42.667c0 23.564 19.103 42.667 42.667 42.667s42.667-19.103 42.667-42.667v0-42.667zM554.667 320v-42.667c0-23.564-19.103-42.667-42.667-42.667s-42.667 19.103-42.667 42.667v0 42.667h85.333zM362.667 874.667c35.346 0 64-28.654 64-64v0-128c0-35.346-28.654-64-64-64s-64 28.654-64 64v0 128c0 35.346 28.654 64 64 64v0zM661.333 874.667c35.346 0 64-28.654 64-64v0-128c0-35.346-28.654-64-64-64s-64 28.654-64 64v0 128c0 35.346 28.654 64 64 64v0z" />
<glyph unicode="&#xe948;" glyph-name="backward-circle-f" d="M553.515 586.496c-2.112 13.211-6.712 25.033-13.324 35.452l0.225-0.38c-25.899 41.173-78.165 52.139-116.779 24.576l-173.013-123.648c-9.213-6.663-16.89-14.815-22.829-24.178l-0.211-0.356c-25.856-41.173-15.573-96.853 23.040-124.459l173.013-123.648c13.867-9.899 30.208-15.189 46.891-15.189 41.728 0 76.373 32.384 82.987 74.837l83.456-59.648c13.867-9.899 30.208-15.189 46.891-15.189 46.464 0 84.139 40.149 84.139 89.685v247.296c0 17.792-4.949 35.157-14.251 49.92-25.899 41.173-78.165 52.139-116.779 24.576l-83.456-59.648zM512 21.333c-235.648 0-426.667 191.019-426.667 426.667s191.019 426.667 426.667 426.667 426.667-191.019 426.667-426.667-191.019-426.667-426.667-426.667zM683.861 324.352l-129.024 92.203 0.128 62.976 128.853 92.117v-247.296zM470.528 324.352l-173.013 123.648 173.013 123.648v-247.296z" />
<glyph unicode="&#xe949;" glyph-name="backward-circle" d="M512 21.333c-235.648 0-426.667 191.019-426.667 426.667s191.019 426.667 426.667 426.667 426.667-191.019 426.667-426.667-191.019-426.667-426.667-426.667zM512 106.667c188.513 0 341.333 152.82 341.333 341.333s-152.82 341.333-341.333 341.333v0c-188.513 0-341.333-152.82-341.333-341.333s152.82-341.333 341.333-341.333v0zM553.515 586.496l83.456 59.648c38.613 27.563 90.88 16.597 116.779-24.576 9.301-14.763 14.251-32.128 14.251-49.92v-247.296c0-49.493-37.675-89.685-84.139-89.685-16.683 0-33.024 5.291-46.891 15.189l-83.456 59.648c-6.613-42.411-41.259-74.837-82.987-74.837-16.683 0-33.024 5.291-46.891 15.189l-173.013 123.648c-38.613 27.605-48.896 83.285-23.040 124.459 6.101 9.685 13.952 18.005 23.040 24.533l173.056 123.648c38.613 27.563 90.88 16.597 116.779-24.576 6.699-10.624 11.093-22.613 13.099-35.072zM470.528 324.352v247.296l-173.013-123.648 173.013-123.648zM683.861 324.352v247.296l-128.853-92.117-0.171-62.976 129.024-92.203z" />
<glyph unicode="&#xe94a;" glyph-name="backward-square-f" d="M553.515 586.496c-2.112 13.211-6.712 25.033-13.324 35.452l0.225-0.38c-25.899 41.173-78.165 52.139-116.779 24.576l-173.013-123.648c-9.213-6.663-16.89-14.815-22.829-24.178l-0.211-0.356c-25.856-41.173-15.573-96.853 23.040-124.459l173.013-123.648c13.867-9.899 30.208-15.189 46.891-15.189 41.728 0 76.373 32.384 82.987 74.837l83.456-59.648c13.867-9.899 30.208-15.189 46.891-15.189 46.464 0 84.139 40.149 84.139 89.685v247.296c0 17.792-4.949 35.157-14.251 49.92-25.899 41.173-78.165 52.139-116.779 24.576l-83.456-59.648zM256 874.667h512c94.257 0 170.667-76.41 170.667-170.667v0-512c0-94.257-76.41-170.667-170.667-170.667v0h-512c-94.257 0-170.667 76.41-170.667 170.667v0 512c0 94.257 76.41 170.667 170.667 170.667v0zM684.885 571.136v-247.253l-128.853 92.075-0.171 62.976 129.024 92.203zM472.832 571.136v-247.253l-172.971 123.605 173.013 123.648z" />
<glyph unicode="&#xe94b;" glyph-name="backward-square" d="M256 874.667h512c94.257 0 170.667-76.41 170.667-170.667v0-512c0-94.257-76.41-170.667-170.667-170.667v0h-512c-94.257 0-170.667 76.41-170.667 170.667v0 512c0 94.257 76.41 170.667 170.667 170.667v0zM256 789.333c-47.128 0-85.333-38.205-85.333-85.333v0-512c0-47.128 38.205-85.333 85.333-85.333v0h512c47.128 0 85.333 38.205 85.333 85.333v0 512c0 47.128-38.205 85.333-85.333 85.333v0h-512zM553.515 586.496l83.456 59.648c38.613 27.563 90.88 16.597 116.779-24.576 9.301-14.763 14.251-32.128 14.251-49.92v-247.296c0-49.493-37.675-89.685-84.139-89.685-16.683 0-33.024 5.291-46.891 15.189l-83.456 59.648c-6.613-42.411-41.259-74.837-82.987-74.837-16.683 0-33.024 5.291-46.891 15.189l-173.013 123.648c-38.613 27.605-48.896 83.285-23.040 124.459 6.101 9.685 13.952 18.005 23.040 24.533l173.056 123.648c38.613 27.563 90.88 16.597 116.779-24.576 6.699-10.624 11.093-22.613 13.099-35.072zM470.528 324.352v247.296l-173.013-123.648 173.013-123.648zM683.861 324.352v247.296l-128.853-92.117-0.171-62.976 129.024-92.203z" />
<glyph unicode="&#xe94c;" glyph-name="backward" d="M789.76 802.56c15.479 18.059 38.314 29.429 63.805 29.429 21.681 0 41.441-8.226 56.329-21.726l-0.070 0.063c18.347-16.469 28.843-40.192 28.843-65.109v-594.432c0-47.915-38.101-86.784-85.077-86.784-25.488 0.063-48.311 11.42-63.737 29.33l-0.093 0.11-256.512 297.216c-13.186 15.311-21.215 35.39-21.215 57.344s8.030 42.033 21.312 57.459l-0.097-0.115 256.512 297.216zM853.589 150.784v594.432l-256.512-297.216 256.512-297.216zM363.093 802.56c15.479 18.059 38.314 29.429 63.805 29.429 21.681 0 41.441-8.226 56.329-21.726l-0.070 0.063c18.347-16.469 28.843-40.192 28.843-65.109v-594.432c0-47.915-38.101-86.784-85.077-86.784-25.488 0.063-48.311 11.42-63.737 29.33l-0.093 0.11-256.512 297.216c-13.186 15.311-21.215 35.39-21.215 57.344s8.030 42.033 21.312 57.459l-0.097-0.115 256.512 297.216zM426.923 150.784v594.432l-256.512-297.216 256.512-297.216z" />
<glyph unicode="&#xe94d;" glyph-name="baidu-circle" d="M512 106.667c188.513 0 341.333 152.82 341.333 341.333s-152.82 341.333-341.333 341.333v0c-188.513 0-341.333-152.82-341.333-341.333s152.82-341.333 341.333-341.333v0zM512 21.333c-235.648 0-426.667 191.019-426.667 426.667s191.019 426.667 426.667 426.667 426.667-191.019 426.667-426.667-191.019-426.667-426.667-426.667zM415.189 501.76c2.475-36.267-16.64-67.2-42.795-69.077-26.112-1.877-49.323 26.027-51.797 62.293s16.683 67.2 42.837 69.077c26.112 1.877 49.323-26.027 51.755-62.293zM595.115 652.117c-25.387 6.656-53.035-16.555-61.739-51.755-8.789-35.243 4.693-69.205 30.080-75.819 25.387-6.656 53.077 16.512 61.781 51.755 11.392 45.867-24.021 74.24-30.123 75.819zM654.635 533.333c-26.709-0.427-47.872-26.453-47.275-66.816 0.555-40.32 22.613-58.709 49.365-58.325 26.667 0.427 47.872 19.456 47.317 59.819-0.811 52.48-43.008 65.408-49.408 65.28zM461.227 660.992c-25.429 0-45.995-29.184-45.995-65.195s20.565-65.195 45.995-65.195c25.387 0 45.995 29.184 45.995 65.195s-20.608 65.195-45.995 65.195zM455.339 458.496c-14.677-21.632-31.317-42.752-63.616-70.4s-45.995-46.72-45.995-74.88c0-28.16 15.659-74.88 60.16-74.88 44.544 0 66.091 10.069 101.333 10.069 35.2 0 58.709-14.080 103.253-14.080 44.501 0 63.147 43.221 63.147 71.381s-7.765 44.075-43.435 76.16c-22.869 20.608-42.24 37.419-72.576 80.64-15.019 21.333-32.299 24.107-50.389 24.107-18.133 0-37.205-6.528-51.883-28.16z" />
<glyph unicode="&#xe94e;" glyph-name="baidu-square" d="M415.189 501.76c2.475-36.267-16.64-67.2-42.795-69.077-26.112-1.877-49.323 26.027-51.797 62.293s16.683 67.2 42.837 69.077c26.112 1.877 49.323-26.027 51.755-62.293zM595.115 652.117c-25.387 6.656-53.035-16.555-61.739-51.755-8.789-35.243 4.693-69.205 30.080-75.819 25.387-6.656 53.077 16.512 61.781 51.755 11.392 45.867-24.021 74.24-30.123 75.819zM654.635 533.333c-26.709-0.427-47.872-26.453-47.275-66.816 0.555-40.32 22.613-58.709 49.365-58.325 26.667 0.427 47.872 19.456 47.317 59.819-0.811 52.48-43.008 65.408-49.408 65.28zM461.227 660.992c-25.429 0-45.995-29.184-45.995-65.195s20.565-65.195 45.995-65.195c25.387 0 45.995 29.184 45.995 65.195s-20.608 65.195-45.995 65.195zM455.339 458.496c-14.677-21.632-31.317-42.752-63.616-70.4s-45.995-46.72-45.995-74.88c0-28.16 15.659-74.88 60.16-74.88 44.544 0 66.091 10.069 101.333 10.069 35.2 0 58.709-14.080 103.253-14.080 44.501 0 63.147 43.221 63.147 71.381s-7.765 44.075-43.435 76.16c-22.869 20.608-42.24 37.419-72.576 80.64-15.019 21.333-32.299 24.107-50.389 24.107-18.133 0-37.205-6.528-51.883-28.16zM256 789.333c-47.128 0-85.333-38.205-85.333-85.333v0-512c0-47.128 38.205-85.333 85.333-85.333v0h512c47.128 0 85.333 38.205 85.333 85.333v0 512c0 47.128-38.205 85.333-85.333 85.333v0h-512zM256 874.667h512c94.257 0 170.667-76.41 170.667-170.667v0-512c0-94.257-76.41-170.667-170.667-170.667v0h-512c-94.257 0-170.667 76.41-170.667 170.667v0 512c0 94.257 76.41 170.667 170.667 170.667v0z" />
<glyph unicode="&#xe94f;" glyph-name="baidu" d="M320.128 559.701c4.864-71.723-33.024-132.907-84.736-136.619-51.627-3.712-97.493 51.413-102.4 123.179-4.907 71.723 33.024 132.907 84.693 136.619s97.536-51.413 102.4-123.179zM675.968 857.088c-50.176 13.141-104.875-32.725-122.112-102.4-17.323-69.675 9.344-136.832 59.52-149.973 50.219-13.141 104.96 32.725 122.197 102.4 22.485 90.752-47.531 146.859-59.563 149.973zM793.728 622.165c-52.821-0.768-94.72-52.309-93.568-132.096s44.8-116.139 97.707-115.328c52.736 0.811 94.72 38.443 93.525 118.272-1.536 103.851-85.035 129.365-97.707 129.152zM411.093 874.667c-50.219 0-90.965-57.771-90.965-128.981 0-71.253 40.747-128.981 90.965-128.981 50.261 0 91.008 57.728 91.008 128.981s-40.747 128.981-91.008 128.981zM399.488 474.069c-29.013-42.752-61.952-84.48-125.867-139.179-63.872-54.699-90.965-92.459-90.965-148.139 0-55.637 30.976-148.096 119.040-148.096 88.107 0 130.688 19.883 200.405 19.883 69.675 0 116.181-27.819 204.245-27.819s124.843 85.461 124.843 141.141c0 55.68-15.275 87.168-85.845 150.699-45.227 40.747-83.541 73.941-143.573 159.445-29.653 42.24-63.872 47.701-99.669 47.701-35.84 0-73.557-12.885-102.613-55.637z" />
<glyph unicode="&#xe950;" glyph-name="bandage-f" d="M892.587 851.797c38.592-38.604 62.461-91.928 62.461-150.827s-23.869-112.223-62.462-150.827l-482.687-482.73c-38.787-39.759-92.893-64.418-152.759-64.418-117.821 0-213.333 95.513-213.333 213.333 0 59.856 24.651 113.954 64.354 152.697l0.043 0.042 482.688 482.773c38.605 38.605 91.938 62.482 150.848 62.482s112.242-23.878 150.848-62.482v0zM560.725 580.309c-7.721 7.718-18.386 12.492-30.165 12.492s-22.445-4.774-30.165-12.492l-120.704-120.704c-7.718-7.721-12.492-18.386-12.492-30.165s4.774-22.445 12.492-30.165v0l60.373-60.331c7.721-7.718 18.386-12.492 30.165-12.492s22.445 4.774 30.165 12.492l120.661 120.661c7.718 7.721 12.492 18.386 12.492 30.165s-4.774 22.445-12.492 30.165l-60.331 60.373zM590.891 610.475c7.769-8.036 18.647-13.026 30.69-13.026 23.564 0 42.667 19.103 42.667 42.667 0 12.043-4.989 22.92-13.014 30.678l-0.012 0.012c-7.665 7.41-18.12 11.977-29.641 11.977-23.564 0-42.667-19.103-42.667-42.667 0-11.521 4.567-21.976 11.989-29.653l-0.012 0.012zM289.237 308.779c7.802-8.294 18.849-13.459 31.103-13.459 23.564 0 42.667 19.103 42.667 42.667 0 12.264-5.174 23.319-13.459 31.102l-0.023 0.021c-7.665 7.41-18.12 11.977-29.641 11.977-23.564 0-42.667-19.103-42.667-42.667 0-11.521 4.567-21.976 11.989-29.653l-0.012 0.012zM741.76 640.64c7.769-8.036 18.647-13.026 30.69-13.026 23.564 0 42.667 19.103 42.667 42.667 0 12.043-4.989 22.92-13.014 30.678l-0.012 0.012c-7.665 7.41-18.12 11.977-29.641 11.977-23.564 0-42.667-19.103-42.667-42.667 0-11.521 4.567-21.976 11.989-29.653l-0.012 0.012zM258.987 157.867c7.769-8.036 18.647-13.026 30.69-13.026 23.564 0 42.667 19.103 42.667 42.667 0 12.043-4.989 22.92-13.014 30.678l-0.012 0.012c-7.665 7.41-18.12 11.977-29.641 11.977-23.564 0-42.667-19.103-42.667-42.667 0-11.521 4.567-21.976 11.989-29.653l-0.012 0.012z" />
<glyph unicode="&#xe951;" glyph-name="bandage" d="M861.739 834.347c36.221-36.227 58.624-86.27 58.624-141.547s-22.403-105.32-58.624-141.547l-452.992-452.992c-36.047-35.206-85.4-56.925-139.826-56.925-110.563 0-200.192 89.629-200.192 200.192 0 54.426 21.719 103.779 56.963 139.865l-0.038-0.039 452.992 452.992c36.227 36.221 86.27 58.624 141.547 58.624s105.32-22.403 141.547-58.624v0zM805.12 777.728c-21.735 21.735-51.762 35.178-84.928 35.178s-63.193-13.443-84.928-35.178l-452.992-453.035c-22.546-21.86-36.539-52.43-36.539-86.268 0-66.333 53.774-120.107 120.107-120.107 33.849 0 64.427 14.002 86.258 36.53l0.030 0.031 452.992 452.949c21.743 21.723 35.192 51.744 35.192 84.907s-13.449 63.183-35.191 84.906l-0.001 0.001zM550.315 579.541l56.619-56.619c7.248-7.243 11.732-17.253 11.732-28.309s-4.484-21.066-11.732-28.309l-113.238-113.238c-7.243-7.248-17.253-11.732-28.309-11.732s-21.066 4.484-28.309 11.732l-56.619 56.619c-7.248 7.243-11.732 17.253-11.732 28.309s4.484 21.066 11.732 28.309l113.238 113.238c7.243 7.248 17.253 11.732 28.309 11.732s21.066-4.484 28.309-11.732v0zM578.645 607.872c-7.245 7.245-11.726 17.254-11.726 28.309 0 22.111 17.924 40.035 40.035 40.035 11.055 0 21.064-4.481 28.309-11.726v0c7.245-7.245 11.726-17.254 11.726-28.309 0-22.111-17.924-40.035-40.035-40.035-11.055 0-21.064 4.481-28.309 11.726v0zM295.509 324.693c-7.245 7.245-11.726 17.254-11.726 28.309 0 22.111 17.924 40.035 40.035 40.035 11.055 0 21.064-4.481 28.309-11.726v0c7.245-7.245 11.726-17.254 11.726-28.309 0-22.111-17.924-40.035-40.035-40.035-11.055 0-21.064 4.481-28.309 11.726v0zM720.171 636.16c-7.354 7.26-11.909 17.341-11.909 28.485 0 22.103 17.918 40.021 40.021 40.021 11.155 0 21.244-4.564 28.502-11.926l0.005-0.005c7.245-7.245 11.726-17.254 11.726-28.309 0-22.111-17.924-40.035-40.035-40.035-11.055 0-21.064 4.481-28.309 11.726v0zM267.221 183.168c-7.245 7.245-11.726 17.254-11.726 28.309 0 22.111 17.924 40.035 40.035 40.035 11.055 0 21.064-4.481 28.309-11.726v0c7.245-7.245 11.726-17.254 11.726-28.309 0-22.111-17.924-40.035-40.035-40.035-11.055 0-21.064 4.481-28.309 11.726v0z" />
<glyph unicode="&#xe952;" glyph-name="bar-chart" d="M256 789.333c23.564 0 42.667-19.103 42.667-42.667v0-597.333c0-23.564-19.103-42.667-42.667-42.667s-42.667 19.103-42.667 42.667v0 597.333c0 23.564 19.103 42.667 42.667 42.667v0zM768 618.667c23.564 0 42.667-19.103 42.667-42.667v0-426.667c0-23.564-19.103-42.667-42.667-42.667s-42.667 19.103-42.667 42.667v0 426.667c0 23.564 19.103 42.667 42.667 42.667v0zM512 448c23.564 0 42.667-19.103 42.667-42.667v0-256c0-23.564-19.103-42.667-42.667-42.667s-42.667 19.103-42.667 42.667v0 256c0 23.564 19.103 42.667 42.667 42.667v0z" />
<glyph unicode="&#xe953;" glyph-name="baseball" d="M642.133 405.333h-2.133c-23.564 0-42.667 19.103-42.667 42.667s19.103 42.667 42.667 42.667v0h2.133c8.533 83.956 40.344 159.179 88.794 220.681l-0.687-0.905c-58.529 49.080-134.66 78.891-217.755 78.891-0.171 0-0.341 0-0.512 0h0.026c-0.144 0-0.315 0-0.485 0-83.094 0-159.226-29.811-218.283-79.322l0.528 0.431c47.762-60.596 79.573-135.819 87.958-217.975l0.149-1.801h2.133c23.564 0 42.667-19.103 42.667-42.667s-19.103-42.667-42.667-42.667v0h-2.133c-8.533-83.956-40.344-159.179-88.794-220.681l0.687 0.905c58.529-49.080 134.66-78.891 217.755-78.891 0.171 0 0.341 0 0.512 0h-0.026c0.144 0 0.315 0 0.485 0 83.094 0 159.226 29.811 218.283 79.322l-0.528-0.431c-47.762 60.596-79.573 135.819-87.958 217.975l-0.149 1.801zM727.979 490.581c22.375-1.46 39.97-19.966 39.97-42.581s-17.595-41.121-39.843-42.575l-0.127-0.007c7.554-59.406 29.428-112.593 62.032-157.481l-0.678 0.98c40.007 55.050 64 123.989 64 198.531 0 0.194 0 0.388 0 0.581v-0.030c0 72.96-22.955 142.037-64 199.083-31.927-43.909-53.801-97.096-61.179-154.814l-0.176-1.687zM296.021 405.419c-22.375 1.46-39.97 19.966-39.97 42.581s17.595 41.121 39.843 42.575l0.127 0.007c-7.554 59.406-29.428 112.593-62.032 157.481l0.678-0.98c-40.007-55.050-64-123.989-64-198.531 0-0.194 0-0.388 0-0.581v0.030c0-72.96 22.955-142.037 64-199.083 31.927 43.909 53.801 97.096 61.179 154.814l0.176 1.687zM512 21.333c-235.648 0-426.667 191.019-426.667 426.667s191.019 426.667 426.667 426.667 426.667-191.019 426.667-426.667-191.019-426.667-426.667-426.667z" />
<glyph unicode="&#xe954;" glyph-name="basketball" d="M554.667 109.312c67.612 8.66 127.614 36.026 176.102 76.676l-0.528-0.431c-47.762 60.596-79.573 135.819-87.958 217.975l-0.149 1.801h-87.467v-296.021zM469.333 109.312v296.021h-87.467c-8.533-83.956-40.344-159.179-88.794-220.681l0.687 0.905c47.959-40.22 107.961-67.586 173.876-76.067l1.697-0.178zM381.867 490.667h87.467v296.021c-67.612-8.66-127.614-36.026-176.102-76.676l0.528 0.431c47.762-60.596 79.573-135.819 87.958-217.975l0.149-1.801zM554.667 786.688v-296.021h87.467c8.533 83.956 40.344 159.179 88.794 220.681l-0.687-0.905c-47.959 40.22-107.961 67.586-173.876 76.067l-1.697 0.178zM296.021 405.333h-122.709c7.568-59.375 29.441-112.531 62.032-157.395l-0.678 0.979c31.914 43.885 53.786 97.041 61.178 154.726l0.177 1.69zM173.312 490.667h122.709c-7.568 59.375-29.441 112.531-62.032 157.395l0.678-0.979c-31.914-43.885-53.786-97.041-61.178-154.726l-0.177-1.69zM727.979 490.667h122.709c-7.568 59.375-29.441 112.531-62.032 157.395l0.678-0.979c-31.914-43.885-53.786-97.041-61.178-154.726l-0.177-1.69zM850.688 405.333h-122.709c7.568-59.375 29.441-112.531 62.032-157.395l-0.678 0.979c31.914 43.885 53.786 97.041 61.178 154.726l0.177 1.69zM512 21.333c-235.648 0-426.667 191.019-426.667 426.667s191.019 426.667 426.667 426.667 426.667-191.019 426.667-426.667-191.019-426.667-426.667-426.667z" />
<glyph unicode="&#xe955;" glyph-name="bathtub-f" d="M447.445 772.395c61.191-10.343 107.217-62.943 107.221-126.293v0-85.333h-256v85.333c0 44.288 22.528 83.371 56.747 106.325-15.007 13.408-34.92 21.603-56.747 21.603-47.118 0-85.317-38.188-85.333-85.303v-256.001h682.667c23.564 0 42.667-19.103 42.667-42.667s-19.103-42.667-42.667-42.667v0-42.667c-0.005-110.808-70.387-205.176-168.884-240.844l-1.783-0.564v-20.651c0-23.564-19.103-42.667-42.667-42.667s-42.667 19.103-42.667 42.667v0 6.059h-256v-6.059c0-23.564-19.103-42.667-42.667-42.667s-42.667 19.103-42.667 42.667v0 20.651c-100.28 36.232-170.661 130.6-170.667 241.407v42.668c-23.564 0-42.667 19.103-42.667 42.667s19.103 42.667 42.667 42.667v0 256c0 0.003 0 0.005 0 0.008 0 94.257 76.41 170.667 170.667 170.667 63.532 0 118.956-34.714 148.338-86.21l0.441-0.839z" />
<glyph unicode="&#xe956;" glyph-name="bathtub" d="M447.445 787.627c61.191-10.343 107.217-62.943 107.221-126.293v0-85.333h-256v85.333c0 44.331 22.528 83.413 56.747 106.368-15.007 13.408-34.92 21.603-56.747 21.603-47.118 0-85.317-38.188-85.333-85.303v-256.001h682.667c23.564 0 42.667-19.103 42.667-42.667s-19.103-42.667-42.667-42.667v0-42.667c0-0.009 0-0.020 0-0.031 0-110.812-70.383-205.186-168.884-240.855l-1.783-0.564v-14.549c0-23.564-19.103-42.667-42.667-42.667s-42.667 19.103-42.667 42.667v0h-256c0-23.564-19.103-42.667-42.667-42.667s-42.667 19.103-42.667 42.667v0 14.549c-100.284 36.233-170.667 130.607-170.667 241.419 0 0.011 0 0.022 0 0.033v-0.002 42.667c-23.564 0-42.667 19.103-42.667 42.667s19.103 42.667 42.667 42.667v0 256c0 0.003 0 0.005 0 0.008 0 94.257 76.41 170.667 170.667 170.667 63.532 0 118.956-34.714 148.338-86.21l0.441-0.839zM810.667 362.667h-597.333v-42.667c0-94.257 76.41-170.667 170.667-170.667v0h256c94.257 0 170.667 76.41 170.667 170.667v0 42.667zM426.667 704c-23.564 0-42.667-19.103-42.667-42.667v0h85.333c0 23.564-19.103 42.667-42.667 42.667v0z" />
<glyph unicode="&#xe957;" glyph-name="battery-charging-f" d="M896 576c23.564 0 42.667-19.103 42.667-42.667v0-170.667c0-23.564-19.103-42.667-42.667-42.667v0-42.667c0-47.128-38.205-85.333-85.333-85.333v0h-640c-47.128 0-85.333 38.205-85.333 85.333v0 341.333c0 47.128 38.205 85.333 85.333 85.333v0h640c47.128 0 85.333-38.205 85.333-85.333v0-42.667zM521.6 357.973c10.368 6.955 16.171 17.451 17.408 31.488v70.485l103.765-38.315c4.401-1.68 9.491-2.652 14.809-2.652 18.251 0 33.825 11.459 39.921 27.575l0.097 0.294c8.149 22.101-5.163 45.483-27.264 53.675-166.515 55.323-219.731 74.977-272.814 94.901l112.174-36.917c-18.816 6.955-32.213 0.213-43.947-8.704-7.765-5.973-12.416-17.408-13.909-34.389l1.835-63.573-103.595 37.419c-4.316 1.61-9.302 2.542-14.507 2.542-23.566 0-42.67-19.104-42.67-42.67 0-18.362 11.598-34.014 27.868-40.032l0.295-0.096c70.656-25.856 124.245-45.44 160.853-58.752 14.507-5.291 24.149-2.56 39.68 7.808z" />
<glyph unicode="&#xe958;" glyph-name="battery-charging" d="M170.667 618.667v-341.333h640v341.333h-640zM896 576c23.564 0 42.667-19.103 42.667-42.667v0-170.667c0-23.564-19.103-42.667-42.667-42.667v0-42.667c0-47.128-38.205-85.333-85.333-85.333v0h-640c-47.128 0-85.333 38.205-85.333 85.333v0 341.333c0 47.128 38.205 85.333 85.333 85.333v0h640c47.128 0 85.333-38.205 85.333-85.333v0-42.667zM673.621 432.725c-6.147-16.499-21.766-28.039-40.081-28.039-5.23 0-10.24 0.941-14.87 2.663l0.295-0.096-160.427 58.368c-16.518 6.144-28.073 21.776-28.073 40.107 0 23.575 19.111 42.686 42.686 42.686 5.244 0 10.267-0.946 14.908-2.676l-0.295 0.096 160.384-58.411c16.507-6.143 28.052-21.766 28.052-40.086 0-5.244-0.946-10.267-2.677-14.908l0.096 0.295zM513.28 363.136c-6.133-16.527-21.766-28.090-40.099-28.090-5.239 0-10.257 0.944-14.894 2.672l0.295-0.096-160.384 58.325c-16.525 6.138-28.087 21.772-28.087 40.107 0 23.571 19.108 42.679 42.679 42.679 5.236 0 10.252-0.943 14.887-2.668l-0.295 0.096 160.384-58.411c16.519-6.137 28.076-21.766 28.076-40.094 0-5.225-0.939-10.23-2.658-14.857l0.096 0.295zM515.84 505.728v-128c0-23.564-19.103-42.667-42.667-42.667s-42.667 19.103-42.667 42.667v0 128c0 23.564 19.103 42.667 42.667 42.667s42.667-19.103 42.667-42.667v0z" />
<glyph unicode="&#xe959;" glyph-name="battery-f" d="M170.667 704h640c47.128 0 85.333-38.205 85.333-85.333v0-341.333c0-47.128-38.205-85.333-85.333-85.333v0h-640c-47.128 0-85.333 38.205-85.333 85.333v0 341.333c0 47.128 38.205 85.333 85.333 85.333v0zM874.667 576h21.333c23.564 0 42.667-19.103 42.667-42.667v0-170.667c0-23.564-19.103-42.667-42.667-42.667v0h-21.333c-35.346 0-64 28.654-64 64v0 128c0 35.346 28.654 64 64 64v0z" />
<glyph unicode="&#xe95a;" glyph-name="battery-half-f" d="M512 618.667v-341.333h298.667v341.333h-298.667zM896 576c23.564 0 42.667-19.103 42.667-42.667v0-170.667c0-23.564-19.103-42.667-42.667-42.667v0-42.667c0-47.128-38.205-85.333-85.333-85.333v0h-640c-47.128 0-85.333 38.205-85.333 85.333v0 341.333c0 47.128 38.205 85.333 85.333 85.333v0h640c47.128 0 85.333-38.205 85.333-85.333v0-42.667z" />
<glyph unicode="&#xe95b;" glyph-name="battery-half" d="M170.667 618.667v-341.333h640v341.333h-640zM896 576c23.564 0 42.667-19.103 42.667-42.667v0-170.667c0-23.564-19.103-42.667-42.667-42.667v0-42.667c0-47.128-38.205-85.333-85.333-85.333v0h-640c-47.128 0-85.333 38.205-85.333 85.333v0 341.333c0 47.128 38.205 85.333 85.333 85.333v0h640c47.128 0 85.333-38.205 85.333-85.333v0-42.667zM469.333 618.667h85.333v-341.333h-85.333v341.333z" />
<glyph unicode="&#xe95c;" glyph-name="battery-one-quarter-f" d="M426.667 618.667v-341.333h384v341.333h-384zM896 576c23.564 0 42.667-19.103 42.667-42.667v0-170.667c0-23.564-19.103-42.667-42.667-42.667v0-42.667c0-47.128-38.205-85.333-85.333-85.333v0h-640c-47.128 0-85.333 38.205-85.333 85.333v0 341.333c0 47.128 38.205 85.333 85.333 85.333v0h640c47.128 0 85.333-38.205 85.333-85.333v0-42.667z" />
<glyph unicode="&#xe95d;" glyph-name="battery-one-quarter" d="M170.667 618.667v-341.333h640v341.333h-640zM896 576c23.564 0 42.667-19.103 42.667-42.667v0-170.667c0-23.564-19.103-42.667-42.667-42.667v0-42.667c0-47.128-38.205-85.333-85.333-85.333v0h-640c-47.128 0-85.333 38.205-85.333 85.333v0 341.333c0 47.128 38.205 85.333 85.333 85.333v0h640c47.128 0 85.333-38.205 85.333-85.333v0-42.667zM341.333 618.667h85.333v-341.333h-85.333v341.333z" />
<glyph unicode="&#xe95e;" glyph-name="battery-three-quarters-f" d="M640 618.667v-341.333h170.667v341.333h-170.667zM896 576c23.564 0 42.667-19.103 42.667-42.667v0-170.667c0-23.564-19.103-42.667-42.667-42.667v0-42.667c0-47.128-38.205-85.333-85.333-85.333v0h-640c-47.128 0-85.333 38.205-85.333 85.333v0 341.333c0 47.128 38.205 85.333 85.333 85.333v0h640c47.128 0 85.333-38.205 85.333-85.333v0-42.667z" />
<glyph unicode="&#xe95f;" glyph-name="battery-three-quarters" d="M170.667 618.667v-341.333h640v341.333h-640zM896 576c23.564 0 42.667-19.103 42.667-42.667v0-170.667c0-23.564-19.103-42.667-42.667-42.667v0-42.667c0-47.128-38.205-85.333-85.333-85.333v0h-640c-47.128 0-85.333 38.205-85.333 85.333v0 341.333c0 47.128 38.205 85.333 85.333 85.333v0h640c47.128 0 85.333-38.205 85.333-85.333v0-42.667zM554.667 618.667h85.333v-341.333h-85.333v341.333z" />
<glyph unicode="&#xe960;" glyph-name="battery" d="M896 576c23.564 0 42.667-19.103 42.667-42.667v0-170.667c0-23.564-19.103-42.667-42.667-42.667v0-42.667c0-47.128-38.205-85.333-85.333-85.333v0h-640c-47.128 0-85.333 38.205-85.333 85.333v0 341.333c0 47.128 38.205 85.333 85.333 85.333v0h640c47.128 0 85.333-38.205 85.333-85.333v0-42.667zM810.667 512v106.667h-640v-341.333h640v234.667z" />
<glyph unicode="&#xe961;" glyph-name="beatport-circle" d="M512 106.667c188.513 0 341.333 152.82 341.333 341.333s-152.82 341.333-341.333 341.333v0c-188.513 0-341.333-152.82-341.333-341.333s152.82-341.333 341.333-341.333v0zM512 21.333c-235.648 0-426.667 191.019-426.667 426.667s191.019 426.667 426.667 426.667 426.667-191.019 426.667-426.667-191.019-426.667-426.667-426.667zM659.712 423.253c0 89.728-67.755 162.731-151.083 162.731s-151.125-73.003-151.125-162.773c0-41.515 14.507-81.067 40.96-111.36 3.541-4.053 9.472-4.267 13.227-0.427l16.299 16.512c1.814 1.908 2.93 4.495 2.93 7.343 0 2.622-0.946 5.024-2.516 6.881l0.013-0.016c-18.509 21.428-29.784 49.554-29.784 80.314 0 0.265 0.001 0.529 0.003 0.793v-0.041c0 65.323 49.323 118.485 109.995 118.485 60.629 0 109.952-53.163 109.952-118.485 0-30.208-10.581-59.008-29.781-81.067-1.545-1.838-2.483-4.23-2.483-6.841 0-2.859 1.125-5.455 2.956-7.371l-0.004 0.004 16.299-16.512c3.755-3.84 9.685-3.627 13.227 0.427 26.411 30.293 40.96 69.845 40.96 111.36zM730.837 422.827c0 21.76-3.371 43.179-10.027 63.787v0.128c-1.465 4.036-5.266 6.867-9.729 6.867-1.096 0-2.153-0.171-3.144-0.487l0.073 0.020-23.296-7.040c-4.177-1.189-7.185-4.971-7.185-9.455 0-1.042 0.162-2.046 0.463-2.988l-0.019 0.069c5.044-15.153 7.954-32.599 7.954-50.725 0-32.293-9.237-62.428-25.213-87.909l0.405 0.693v-0.043c-0.881-1.435-1.402-3.172-1.402-5.031 0-3.631 1.989-6.798 4.938-8.469l0.048-0.025 20.907-12.16c4.864-2.773 11.093-1.28 14.080 3.413 20.352 32.981 31.147 70.827 31.147 109.355zM373.888 335.701c-15.571 24.768-24.808 54.884-24.808 87.157 0 18.164 2.926 35.645 8.333 51.996l-0.335-1.169c0.284 0.876 0.447 1.884 0.447 2.929 0 4.47-2.989 8.242-7.077 9.427l-0.069 0.017-23.339 7.040c-0.926 0.303-1.991 0.478-3.097 0.478-4.459 0-8.255-2.838-9.68-6.806l-0.022-0.072c-6.395-19.083-10.084-41.057-10.084-63.892 0-40.525 11.62-78.335 31.71-110.281l-0.506 0.862c1.882-2.888 5.096-4.77 8.75-4.77 1.95 0 3.774 0.536 5.334 1.469l-0.047-0.026 20.907 12.16c2.986 1.699 4.967 4.86 4.967 8.483 0 1.846-0.514 3.572-1.407 5.043l0.024-0.043z" />
<glyph unicode="&#xe962;" glyph-name="beatport-square" d="M659.712 423.253c0 89.728-67.755 162.731-151.083 162.731s-151.125-73.003-151.125-162.773c0-41.515 14.507-81.067 40.96-111.36 3.541-4.053 9.472-4.267 13.227-0.427l16.299 16.512c1.814 1.908 2.93 4.495 2.93 7.343 0 2.622-0.946 5.024-2.516 6.881l0.013-0.016c-18.509 21.428-29.784 49.554-29.784 80.314 0 0.265 0.001 0.529 0.003 0.793v-0.041c0 65.323 49.323 118.485 109.995 118.485 60.629 0 109.952-53.163 109.952-118.485 0-30.208-10.581-59.008-29.781-81.067-1.545-1.838-2.483-4.23-2.483-6.841 0-2.859 1.125-5.455 2.956-7.371l-0.004 0.004 16.299-16.512c3.755-3.84 9.685-3.627 13.227 0.427 26.411 30.293 40.96 69.845 40.96 111.36zM730.837 422.827c0 21.76-3.371 43.179-10.027 63.787v0.128c-1.465 4.036-5.266 6.867-9.729 6.867-1.096 0-2.153-0.171-3.144-0.487l0.073 0.020-23.296-7.040c-4.177-1.189-7.185-4.971-7.185-9.455 0-1.042 0.162-2.046 0.463-2.988l-0.019 0.069c5.044-15.153 7.954-32.599 7.954-50.725 0-32.293-9.237-62.428-25.213-87.909l0.405 0.693v-0.043c-0.881-1.435-1.402-3.172-1.402-5.031 0-3.631 1.989-6.798 4.938-8.469l0.048-0.025 20.907-12.16c4.864-2.773 11.093-1.28 14.080 3.413 20.352 32.981 31.147 70.827 31.147 109.355zM373.888 335.701c-15.571 24.768-24.808 54.884-24.808 87.157 0 18.164 2.926 35.645 8.333 51.996l-0.335-1.169c0.284 0.876 0.447 1.884 0.447 2.929 0 4.47-2.989 8.242-7.077 9.427l-0.069 0.017-23.339 7.040c-0.926 0.303-1.991 0.478-3.097 0.478-4.459 0-8.255-2.838-9.68-6.806l-0.022-0.072c-6.395-19.083-10.084-41.057-10.084-63.892 0-40.525 11.62-78.335 31.71-110.281l-0.506 0.862c1.882-2.888 5.096-4.77 8.75-4.77 1.95 0 3.774 0.536 5.334 1.469l-0.047-0.026 20.907 12.16c2.986 1.699 4.967 4.86 4.967 8.483 0 1.846-0.514 3.572-1.407 5.043l0.024-0.043zM256 789.333c-47.128 0-85.333-38.205-85.333-85.333v0-512c0-47.128 38.205-85.333 85.333-85.333v0h512c47.128 0 85.333 38.205 85.333 85.333v0 512c0 47.128-38.205 85.333-85.333 85.333v0h-512zM256 874.667h512c94.257 0 170.667-76.41 170.667-170.667v0-512c0-94.257-76.41-170.667-170.667-170.667v0h-512c-94.257 0-170.667 76.41-170.667 170.667v0 512c0 94.257 76.41 170.667 170.667 170.667v0z" />
<glyph unicode="&#xe963;" glyph-name="beatport" d="M796.459 399.787c0 179.499-135.595 325.547-302.251 325.547s-302.208-146.048-302.208-325.547c0-83.072 29.099-162.176 81.92-222.805 7.125-8.107 18.944-8.491 26.453-0.853l32.597 33.024c3.639 3.819 5.878 9.001 5.878 14.706 0 5.255-1.9 10.066-5.051 13.784l0.026-0.031c-37.018 42.85-59.567 99.098-59.567 160.612 0 0.535 0.002 1.069 0.005 1.603v-0.082c0 130.688 98.645 236.971 219.947 236.971s219.989-106.283 219.989-236.971c0.003-0.451 0.005-0.985 0.005-1.519 0-61.522-22.567-117.773-59.874-160.927l0.264 0.313 0.043-0.043c-3.11-3.677-5-8.472-5-13.708 0-5.709 2.247-10.892 5.904-14.715l-0.007 0.008 32.597-32.981c7.509-7.68 19.371-7.253 26.453 0.853 52.779 60.587 81.877 139.691 81.877 222.72zM938.667 398.933c0 43.52-6.741 86.443-20.053 127.573v0.128l-0.085 0.128c-2.923 8.057-10.511 13.709-19.419 13.709-2.16 0-4.243-0.332-6.199-0.949l0.146 0.040-46.677-14.037c-8.335-2.391-14.331-9.944-14.331-18.899 0-2.088 0.326-4.099 0.93-5.987l-0.038 0.139h-0.043c10.139-30.35 15.988-65.293 15.988-101.603 0-64.554-18.489-124.789-50.459-175.7l0.807 1.378h0.043c-1.778-2.876-2.832-6.363-2.832-10.096 0-7.249 3.973-13.57 9.861-16.904l0.097-0.050 41.856-24.32c9.685-5.632 22.187-2.56 28.032 6.784 39.097 62.148 62.316 137.711 62.379 218.693v0.017zM224.768 224.768c-31.142 49.536-49.617 109.767-49.617 174.314 0 36.328 5.852 71.289 16.665 103.992l-0.67-2.339c0.558 1.74 0.88 3.742 0.88 5.819 0 8.958-5.989 16.518-14.181 18.894l-0.139 0.035-46.635 14.080c-1.825 0.588-3.925 0.927-6.105 0.927-8.923 0-16.518-5.683-19.365-13.626l-0.045-0.144h-0.085c-12.784-38.158-20.16-82.096-20.16-127.756 0-81.043 23.237-156.659 63.411-220.548l-1.011 1.723h0.085c5.803-9.259 18.304-12.245 27.947-6.656l41.899 24.32c9.6 5.547 12.757 17.579 7.125 26.923z" />
<glyph unicode="&#xe964;" glyph-name="beer-f" d="M682.667 192c0-70.692-57.308-128-128-128v0h-256c-70.692 0-128 57.308-128 128v0 384h554.667c70.692 0 128-57.308 128-128v0-128c0-70.692-57.308-128-128-128v0h-42.667zM172.16 661.333c10.801 72.788 72.853 128.001 147.802 128.001 2.52 0 5.025-0.062 7.514-0.186l-0.35 0.014c32.713 26.686 74.923 42.853 120.91 42.853 98.528 0 179.722-74.215 190.73-169.794l0.083-0.889h-466.688zM341.333 490.667c-23.564 0-42.667-19.103-42.667-42.667v0-170.667c0-23.564 19.103-42.667 42.667-42.667s42.667 19.103 42.667 42.667v0 170.667c0 23.564-19.103 42.667-42.667 42.667v0zM512 490.667c-23.564 0-42.667-19.103-42.667-42.667v0-170.667c0-23.564 19.103-42.667 42.667-42.667s42.667 19.103 42.667 42.667v0 170.667c0 23.564-19.103 42.667-42.667 42.667v0zM682.667 490.667v-213.333h42.667c23.564 0 42.667 19.103 42.667 42.667v0 128c0 23.564-19.103 42.667-42.667 42.667v0h-42.667z" />
<glyph unicode="&#xe965;" glyph-name="beer" d="M256 576v-384c0-23.564 19.103-42.667 42.667-42.667v0h256c23.564 0 42.667 19.103 42.667 42.667v0 384h-341.333zM682.667 576h42.667c70.692 0 128-57.308 128-128v0-128c0-70.692-57.308-128-128-128v0h-42.667c0-70.692-57.308-128-128-128v0h-256c-70.692 0-128 57.308-128 128v0 384c0 47.128 38.205 85.333 85.333 85.333v0h341.333c47.128 0 85.333-38.205 85.333-85.333v0zM682.667 490.667v-213.333h42.667c23.564 0 42.667 19.103 42.667 42.667v0 128c0 23.564-19.103 42.667-42.667 42.667v0h-42.667zM341.333 490.667c23.564 0 42.667-19.103 42.667-42.667v0-170.667c0-23.564-19.103-42.667-42.667-42.667s-42.667 19.103-42.667 42.667v0 170.667c0 23.564 19.103 42.667 42.667 42.667v0zM512 490.667c23.564 0 42.667-19.103 42.667-42.667v0-170.667c0-23.564-19.103-42.667-42.667-42.667s-42.667 19.103-42.667 42.667v0 170.667c0 23.564 19.103 42.667 42.667 42.667v0zM448 832c106.039 0 192-85.961 192-192v0-64.384h-469.333v64.384c0 82.474 66.859 149.333 149.333 149.333 2.506 0 4.998-0.062 7.474-0.184l-0.348 0.014c32.609 26.674 74.719 42.838 120.603 42.838 0.096 0 0.191 0 0.286 0h-0.015zM256 661.333h298.667c0 47.128-38.205 85.333-85.333 85.333v0h-42.667c-0.005 0-0.012 0-0.018 0-31.953 0-59.804-17.562-74.427-43.561l-0.222-0.428c-3.167 0.84-6.804 1.323-10.553 1.323-0.040 0-0.080 0-0.12 0h-42.661c-23.564 0-42.667-19.103-42.667-42.667v0z" />
<glyph unicode="&#xe966;" glyph-name="behance-circle" d="M512 106.667c188.513 0 341.333 152.82 341.333 341.333s-152.82 341.333-341.333 341.333v0c-188.513 0-341.333-152.82-341.333-341.333s152.82-341.333 341.333-341.333v0zM512 21.333c-235.648 0-426.667 191.019-426.667 426.667s191.019 426.667 426.667 426.667 426.667-191.019 426.667-426.667-191.019-426.667-426.667-426.667zM683.947 538.453h-106.88v26.539h106.923v-26.581zM505.899 429.525c6.912-10.667 10.325-23.637 10.325-38.869 0-15.787-3.84-29.867-11.776-42.368-10.64-17.461-27.924-29.978-48.254-34.096l-0.471-0.080c-11.52-2.389-24.021-3.584-37.504-3.584h-119.552v265.472h128.213c32.299-0.512 55.211-9.899 68.736-28.288 8.107-11.264 12.16-24.789 12.16-40.533 0-16.213-4.053-29.227-12.288-39.083-4.523-5.547-11.264-10.581-20.181-15.104 13.483-4.949 23.723-12.715 30.592-23.467zM359.893 471.339h56.192c11.52 0 20.864 2.176 28.032 6.571 7.211 4.395 10.795 12.16 10.795 23.339 0 12.373-4.736 20.565-14.251 24.491-8.609 2.674-18.508 4.215-28.766 4.215-0.912 0-1.822-0.012-2.728-0.036l0.134 0.003h-49.408v-58.581zM460.331 394.453c0 13.781-5.675 23.296-16.896 28.416-6.315 2.901-15.189 4.395-26.539 4.523h-57.003v-70.741h56.107c11.52 0 20.48 1.493 26.88 4.651 11.605 5.76 17.451 16.768 17.451 33.152zM723.627 437.632c1.28-8.704 1.877-21.291 1.664-37.76h-138.453c0.768-19.115 7.339-32.469 19.883-40.107 7.509-4.821 16.64-7.168 27.392-7.168 11.307 0 20.48 2.859 27.605 8.747 4.184 3.586 7.607 7.924 10.089 12.819l0.109 0.237h50.773c-1.365-11.307-7.467-22.741-18.432-34.389-17.067-18.475-40.875-27.733-71.552-27.733-0.399-0.006-0.871-0.009-1.343-0.009-24.986 0-47.911 8.828-65.825 23.535l0.182-0.145c-19.285 15.616-29.013 40.96-29.013 76.16 0 32.981 8.747 58.24 26.197 75.819 17.493 17.621 40.149 26.368 68.053 26.368 16.512 0 31.403-2.944 44.715-8.875 13.227-5.973 24.192-15.317 32.811-28.16 7.808-11.349 12.8-24.405 15.147-39.339zM673.707 432.683c-0.939 13.227-5.376 23.211-13.312 30.037-7.517 6.432-17.354 10.346-28.106 10.346-0.469 0-0.937-0.007-1.402-0.022l0.068 0.002c-12.8 0-22.656-3.712-29.696-10.923-7.040-7.253-11.435-17.067-13.227-29.44h85.675z" />
<glyph unicode="&#xe967;" glyph-name="behance-square" d="M683.947 538.453h-106.88v26.539h106.923v-26.581zM505.899 429.525c6.912-10.667 10.325-23.637 10.325-38.869 0-15.787-3.84-29.867-11.776-42.368-10.64-17.461-27.924-29.978-48.254-34.096l-0.471-0.080c-11.52-2.389-24.021-3.584-37.504-3.584h-119.552v265.472h128.213c32.299-0.512 55.211-9.899 68.736-28.288 8.107-11.264 12.16-24.789 12.16-40.533 0-16.213-4.053-29.227-12.288-39.083-4.523-5.547-11.264-10.581-20.181-15.104 13.483-4.949 23.723-12.715 30.592-23.467zM359.893 471.339h56.192c11.52 0 20.864 2.176 28.032 6.571 7.211 4.395 10.795 12.16 10.795 23.339 0 12.373-4.736 20.565-14.251 24.491-8.609 2.674-18.508 4.215-28.766 4.215-0.912 0-1.822-0.012-2.728-0.036l0.134 0.003h-49.408v-58.581zM460.331 394.453c0 13.781-5.675 23.296-16.896 28.416-6.315 2.901-15.189 4.395-26.539 4.523h-57.003v-70.741h56.107c11.52 0 20.48 1.493 26.88 4.651 11.605 5.76 17.451 16.768 17.451 33.152zM723.627 437.632c1.28-8.704 1.877-21.291 1.664-37.76h-138.453c0.768-19.115 7.339-32.469 19.883-40.107 7.509-4.821 16.64-7.168 27.392-7.168 11.307 0 20.48 2.859 27.605 8.747 4.184 3.586 7.607 7.924 10.089 12.819l0.109 0.237h50.773c-1.365-11.307-7.467-22.741-18.432-34.389-17.067-18.475-40.875-27.733-71.552-27.733-0.399-0.006-0.871-0.009-1.343-0.009-24.986 0-47.911 8.828-65.825 23.535l0.182-0.145c-19.285 15.616-29.013 40.96-29.013 76.16 0 32.981 8.747 58.24 26.197 75.819 17.493 17.621 40.149 26.368 68.053 26.368 16.512 0 31.403-2.944 44.715-8.875 13.227-5.973 24.192-15.317 32.811-28.16 7.808-11.349 12.8-24.405 15.147-39.339zM673.707 432.683c-0.939 13.227-5.376 23.211-13.312 30.037-7.517 6.432-17.354 10.346-28.106 10.346-0.469 0-0.937-0.007-1.402-0.022l0.068 0.002c-12.8 0-22.656-3.712-29.696-10.923-7.040-7.253-11.435-17.067-13.227-29.44h85.675zM256 789.333c-47.128 0-85.333-38.205-85.333-85.333v0-512c0-47.128 38.205-85.333 85.333-85.333v0h512c47.128 0 85.333 38.205 85.333 85.333v0 512c0 47.128-38.205 85.333-85.333 85.333v0h-512zM256 874.667h512c94.257 0 170.667-76.41 170.667-170.667v0-512c0-94.257-76.41-170.667-170.667-170.667v0h-512c-94.257 0-170.667 76.41-170.667 170.667v0 512c0 94.257 76.41 170.667 170.667 170.667v0z" />
</font>
</defs>
</svg>
